  0
SECTION
  2
HEADER
  9
$ACADVER
  1
AC1027
  9
$ACADMAINTVER
 70
     8
  9
$DWGCODEPAGE
  3
ANSI_1252
  9
$REQUIREDVERSIONS
160
                 0
  9
$INSBASE
 10
0.0
 20
0.0
 30
0.0
  9
$EXTMIN
 10
0.0
 20
0.0
 30
0.0
  9
$EXTMAX
 10
594.0
 20
420.0
 30
0.0
  9
$LIMMIN
 10
0.0
 20
0.0
  9
$LIMMAX
 10
594.0
 20
420.0
  9
$ORTHOMODE
 70
     0
  9
$REGENMODE
 70
     1
  9
$FILLMODE
 70
     1
  9
$QTEXTMODE
 70
     0
  9
$MIRRTEXT
 70
     1
  9
$LTSCALE
 40
2.0
  9
$ATTMODE
 70
     1
  9
$TEXTSIZE
 40
7.0
  9
$TRACEWID
 40
1.0
  9
$TEXTSTYLE
  7
Standard
  9
$CLAYER
  8
0
  9
$CELTYPE
  6
ByLayer
  9
$CECOLOR
 62
   256
  9
$CELTSCALE
 40
1.0
  9
$DISPSILH
 70
     0
  9
$DIMSCALE
 40
1.0
  9
$DIMASZ
 40
2.5
  9
$DIMEXO
 40
0.625
  9
$DIMDLI
 40
3.75
  9
$DIMRND
 40
0.0
  9
$DIMDLE
 40
0.0
  9
$DIMEXE
 40
1.25
  9
$DIMTP
 40
0.0
  9
$DIMTM
 40
0.0
  9
$DIMTXT
 40
2.5
  9
$DIMCEN
 40
2.5
  9
$DIMTSZ
 40
0.0
  9
$DIMTOL
 70
     0
  9
$DIMLIM
 70
     0
  9
$DIMTIH
 70
     0
  9
$DIMTOH
 70
     0
  9
$DIMSE1
 70
     0
  9
$DIMSE2
 70
     0
  9
$DIMTAD
 70
     1
  9
$DIMZIN
 70
     8
  9
$DIMBLK
  1

  9
$DIMASO
 70
     1
  9
$DIMSHO
 70
     1
  9
$DIMPOST
  1

  9
$DIMAPOST
  1

  9
$DIMALT
 70
     0
  9
$DIMALTD
 70
     3
  9
$DIMALTF
 40
0.0393700787
  9
$DIMLFAC
 40
1.0
  9
$DIMTOFL
 70
     1
  9
$DIMTVP
 40
0.0
  9
$DIMTIX
 70
     0
  9
$DIMSOXD
 70
     0
  9
$DIMSAH
 70
     0
  9
$DIMBLK1
  1

  9
$DIMBLK2
  1

  9
$DIMSTYLE
  2
ISO-25
  9
$DIMCLRD
 70
     0
  9
$DIMCLRE
 70
     0
  9
$DIMCLRT
 70
     0
  9
$DIMTFAC
 40
1.0
  9
$DIMGAP
 40
0.625
  9
$DIMJUST
 70
     0
  9
$DIMSD1
 70
     0
  9
$DIMSD2
 70
     0
  9
$DIMTOLJ
 70
     0
  9
$DIMTZIN
 70
     8
  9
$DIMALTZ
 70
     0
  9
$DIMALTTZ
 70
     0
  9
$DIMUPT
 70
     0
  9
$DIMDEC
 70
     2
  9
$DIMTDEC
 70
     2
  9
$DIMALTU
 70
     2
  9
$DIMALTTD
 70
     3
  9
$DIMTXSTY
  7
Standard
  9
$DIMAUNIT
 70
     0
  9
$DIMADEC
 70
     0
  9
$DIMALTRND
 40
0.0
  9
$DIMAZIN
 70
     0
  9
$DIMDSEP
 70
    44
  9
$DIMATFIT
 70
     3
  9
$DIMFRAC
 70
     0
  9
$DIMLDRBLK
  1

  9
$DIMLUNIT
 70
     2
  9
$DIMLWD
 70
    -2
  9
$DIMLWE
 70
    -2
  9
$DIMTMOVE
 70
     0
  9
$DIMFXL
 40
1.0
  9
$DIMFXLON
 70
     0
  9
$DIMJOGANG
 40
0.7853981634
  9
$DIMTFILL
 70
     0
  9
$DIMTFILLCLR
 70
     0
  9
$DIMARCSYM
 70
     0
  9
$DIMLTYPE
  6

  9
$DIMLTEX1
  6

  9
$DIMLTEX2
  6

  9
$DIMTXTDIRECTION
 70
     0
  9
$LUNITS
 70
     2
  9
$LUPREC
 70
     4
  9
$SKETCHINC
 40
1.0
  9
$FILLETRAD
 40
10.0
  9
$AUNITS
 70
     0
  9
$AUPREC
 70
     0
  9
$MENU
  1
.
  9
$ELEVATION
 40
0.0
  9
$PELEVATION
 40
0.0
  9
$THICKNESS
 40
0.0
  9
$LIMCHECK
 70
     0
  9
$CHAMFERA
 40
0.0
  9
$CHAMFERB
 40
0.0
  9
$CHAMFERC
 40
0.0
  9
$CHAMFERD
 40
0.0
  9
$SKPOLY
 70
     0
  9
$TDCREATE
 40
2457521.690065521
  9
$TDUCREATE
 40
2457521.606732187
  9
$TDUPDATE
 40
2457521.69006794
  9
$TDUUPDATE
 40
2457521.606734606
  9
$TDINDWG
 40
0.0000000116
  9
$TDUSRTIMER
 40
0.0000000116
  9
$USRTIMER
 70
     1
  9
$ANGBASE
 50
0.0
  9
$ANGDIR
 70
     0
  9
$PDMODE
 70
     0
  9
$PDSIZE
 40
0.0
  9
$PLINEWID
 40
0.0
  9
$SPLFRAME
 70
     0
  9
$SPLINETYPE
 70
     6
  9
$SPLINESEGS
 70
     8
  9
$HANDSEED
  5
25A
  9
$SURFTAB1
 70
     6
  9
$SURFTAB2
 70
     6
  9
$SURFTYPE
 70
     6
  9
$SURFU
 70
     6
  9
$SURFV
 70
     6
  9
$UCSBASE
  2

  9
$UCSNAME
  2

  9
$UCSORG
 10
0.0
 20
0.0
 30
0.0
  9
$UCSXDIR
 10
1.0
 20
0.0
 30
0.0
  9
$UCSYDIR
 10
0.0
 20
1.0
 30
0.0
  9
$UCSORTHOREF
  2

  9
$UCSORTHOVIEW
 70
     0
  9
$UCSORGTOP
 10
0.0
 20
0.0
 30
0.0
  9
$UCSORGBOTTOM
 10
0.0
 20
0.0
 30
0.0
  9
$UCSORGLEFT
 10
0.0
 20
0.0
 30
0.0
  9
$UCSORGRIGHT
 10
0.0
 20
0.0
 30
0.0
  9
$UCSORGFRONT
 10
0.0
 20
0.0
 30
0.0
  9
$UCSORGBACK
 10
0.0
 20
0.0
 30
0.0
  9
$PUCSBASE
  2

  9
$PUCSNAME
  2

  9
$PUCSORG
 10
0.0
 20
0.0
 30
0.0
  9
$PUCSXDIR
 10
1.0
 20
0.0
 30
0.0
  9
$PUCSYDIR
 10
0.0
 20
1.0
 30
0.0
  9
$PUCSORTHOREF
  2

  9
$PUCSORTHOVIEW
 70
     0
  9
$PUCSORGTOP
 10
0.0
 20
0.0
 30
0.0
  9
$PUCSORGBOTTOM
 10
0.0
 20
0.0
 30
0.0
  9
$PUCSORGLEFT
 10
0.0
 20
0.0
 30
0.0
  9
$PUCSORGRIGHT
 10
0.0
 20
0.0
 30
0.0
  9
$PUCSORGFRONT
 10
0.0
 20
0.0
 30
0.0
  9
$PUCSORGBACK
 10
0.0
 20
0.0
 30
0.0
  9
$USERI1
 70
     0
  9
$USERI2
 70
     0
  9
$USERI3
 70
     0
  9
$USERI4
 70
     0
  9
$USERI5
 70
     0
  9
$USERR1
 40
0.0
  9
$USERR2
 40
0.0
  9
$USERR3
 40
0.0
  9
$USERR4
 40
0.0
  9
$USERR5
 40
0.0
  9
$WORLDVIEW
 70
     1
  9
$SHADEDGE
 70
     3
  9
$SHADEDIF
 70
    70
  9
$TILEMODE
 70
     1
  9
$MAXACTVP
 70
    64
  9
$PINSBASE
 10
0.0
 20
0.0
 30
0.0
  9
$PLIMCHECK
 70
     0
  9
$PEXTMIN
 10
0.0
 20
0.0
 30
0.0
  9
$PEXTMAX
 10
594.0
 20
420.0
 30
0.0
  9
$PLIMMIN
 10
0.0
 20
0.0
  9
$PLIMMAX
 10
594.0
 20
420.0
  9
$UNITMODE
 70
     0
  9
$VISRETAIN
 70
     1
  9
$PLINEGEN
 70
     0
  9
$PSLTSCALE
 70
     1
  9
$TREEDEPTH
 70
  3020
  9
$CMLSTYLE
  2
Standard
  9
$CMLJUST
 70
     0
  9
$CMLSCALE
 40
20.0
  9
$PROXYGRAPHICS
 70
     1
  9
$MEASUREMENT
 70
     1
  9
$CELWEIGHT
370
    -1
  9
$ENDCAPS
280
     0
  9
$JOINSTYLE
280
     0
  9
$LWDISPLAY
290
     0
  9
$INSUNITS
 70
     4
  9
$HYPERLINKBASE
  1

  9
$STYLESHEET
  1

  9
$XEDIT
290
     1
  9
$CEPSNTYPE
380
     0
  9
$PSTYLEMODE
290
     1
  9
$FINGERPRINTGUID
  2
{9C8C68DF-A7C7-48F2-A5F7-D50FF664228D}
  9
$VERSIONGUID
  2
{FAEB1C32-E019-11D5-929B-00C0DF256EC4}
  9
$EXTNAMES
290
     1
  9
$PSVPSCALE
 40
0.0
  9
$OLESTARTUP
290
     0
  9
$SORTENTS
280
   127
  9
$INDEXCTL
280
     0
  9
$HIDETEXT
280
     1
  9
$XCLIPFRAME
280
     2
  9
$HALOGAP
280
     0
  9
$OBSCOLOR
 70
   257
  9
$OBSLTYPE
280
     0
  9
$INTERSECTIONDISPLAY
280
     0
  9
$INTERSECTIONCOLOR
 70
   257
  9
$DIMASSOC
280
     2
  9
$PROJECTNAME
  1

  9
$CAMERADISPLAY
290
     0
  9
$LENSLENGTH
 40
50.0
  9
$CAMERAHEIGHT
 40
0.0
  9
$STEPSPERSEC
 40
2.0
  9
$STEPSIZE
 40
6.0
  9
$3DDWFPREC
 40
2.0
  9
$PSOLWIDTH
 40
5.0
  9
$PSOLHEIGHT
 40
80.0
  9
$LOFTANG1
 40
1.5707963268
  9
$LOFTANG2
 40
1.5707963268
  9
$LOFTMAG1
 40
0.0
  9
$LOFTMAG2
 40
0.0
  9
$LOFTPARAM
 70
     7
  9
$LOFTNORMALS
280
     1
  9
$LATITUDE
 40
37.795
  9
$LONGITUDE
 40
-122.394
  9
$NORTHDIRECTION
 40
0.0
  9
$TIMEZONE
 70
 -8000
  9
$LIGHTGLYPHDISPLAY
280
     1
  9
$TILEMODELIGHTSYNCH
280
     1
  9
$CMATERIAL
347
44
  9
$SOLIDHIST
280
     0
  9
$SHOWHIST
280
     1
  9
$DWFFRAME
280
     2
  9
$DGNFRAME
280
     2
  9
$REALWORLDSCALE
290
     1
  9
$INTERFERECOLOR
 62
   256
  9
$CSHADOW
280
     0
  9
$SHADOWPLANELOCATION
 40
0.0
  0
ENDSEC
  0
SECTION
  2
CLASSES
  0
CLASS
  1
ACDBDICTIONARYWDFLT
  2
AcDbDictionaryWithDefault
  3
ObjectDBX Classes
 90
        0
 91
        4
280
     0
281
     0
  0
CLASS
  1
VISUALSTYLE
  2
AcDbVisualStyle
  3
ObjectDBX Classes
 90
     4095
 91
        4
280
     0
281
     0
  0
CLASS
  1
MATERIAL
  2
AcDbMaterial
  3
ObjectDBX Classes
 90
     1153
 91
        4
280
     0
281
     0
  0
CLASS
  1
SCALE
  2
AcDbScale
  3
ObjectDBX Classes
 90
     1153
 91
        4
280
     0
281
     0
  0
CLASS
  1
TABLESTYLE
  2
AcDbTableStyle
  3
ObjectDBX Classes
 90
     4095
 91
        4
280
     0
281
     0
  0
CLASS
  1
MLEADERSTYLE
  2
AcDbMLeaderStyle
  3
ACDB_MLEADERSTYLE_CLASS
 90
     4095
 91
        4
280
     0
281
     0
  0
CLASS
  1
SUN
  2
AcDbSun
  3
SCENEOE
 90
     1153
 91
        4
280
     0
281
     0
  0
CLASS
  1
RASTERVARIABLES
  2
AcDbRasterVariables
  3
ISM
 90
        0
 91
        4
280
     0
281
     0
  0
CLASS
  1
IMAGEDEF
  2
AcDbRasterImageDef
  3
ISM
 90
        0
 91
        4
280
     0
281
     0
  0
CLASS
  1
IMAGE
  2
AcDbRasterImage
  3
ISM
 90
      127
 91
        5
280
     0
281
     1
  0
CLASS
  1
MULTILEADER
  2
AcDbMLeader
  3
ACDB_MLEADER_CLASS
 90
     1025
 91
        4
280
     0
281
     1
  0
CLASS
  1
DICTIONARYVAR
  2
AcDbDictionaryVar
  3
ObjectDBX Classes
 90
        0
 91
        4
280
     0
281
     0
  0
CLASS
  1
CELLSTYLEMAP
  2
AcDbCellStyleMap
  3
ObjectDBX Classes
 90
     1152
 91
        4
280
     0
281
     0
  0
ENDSEC
  0
SECTION
  2
TABLES
  0
TABLE
  2
VPORT
  5
8
330
0
100
AcDbSymbolTable
 70
     1
  0
VPORT
  5
29
330
8
100
AcDbSymbolTableRecord
100
AcDbViewportTableRecord
  2
*Active
 70
     0
 10
0.0
 20
0.0
 11
1.0
 21
1.0
 12
344.1869158879
 22
148.5
 13
0.0
 23
0.0
 14
10.0
 24
10.0
 15
10.0
 25
10.0
 16
0.0
 26
0.0
 36
1.0
 17
0.0
 27
0.0
 37
0.0
 40
297.0
 41
1.9729729729
 42
50.0
 43
0.0
 44
0.0
 50
0.0
 51
0.0
 71
     0
 72
   100
 73
     1
 74
     3
 75
     0
 76
     0
 77
     0
 78
     0
281
     0
 65
     1
110
0.0
120
0.0
130
0.0
111
1.0
121
0.0
131
0.0
112
0.0
122
1.0
132
0.0
 79
     0
146
0.0
348
2F
 60
     3
 61
     5
292
     1
282
     1
141
0.0
142
0.0
 63
   250
361
6D
  0
ENDTAB
  0
TABLE
  2
LTYPE
  5
5
330
0
100
AcDbSymbolTable
 70
     2
  0
LTYPE
  5
14
330
5
100
AcDbSymbolTableRecord
100
AcDbLinetypeTableRecord
  2
ByBlock
 70
     0
  3

 72
    65
 73
     0
 40
0.0
  0
LTYPE
  5
15
330
5
100
AcDbSymbolTableRecord
100
AcDbLinetypeTableRecord
  2
ByLayer
 70
     0
  3

 72
    65
 73
     0
 40
0.0
  0
LTYPE
  5
16
330
5
100
AcDbSymbolTableRecord
100
AcDbLinetypeTableRecord
  2
Continuous
 70
     0
  3
Solid line
 72
    65
 73
     0
 40
0.0
  0
LTYPE
  5
BD
330
5
100
AcDbSymbolTableRecord
100
AcDbLinetypeTableRecord
  2
HIDDEN2
 70
     0
  3
Hidden (.5x) _ _ _ _ _ _ _ _ _ _ _ _ _ _ _ _ _ 
 72
    65
 73
     2
 40
4.7625
 49
3.175
 74
     4
 75
     0
340
0
 46
0.0
 50
0.0
 44
0.0
 45
0.0
 49
-1.5875
 74
     4
 75
     0
340
0
 46
0.0
 50
0.0
 44
0.0
 45
0.0
  0
ENDTAB
  0
TABLE
  2
LAYER
  5
2
330
0
100
AcDbSymbolTable
 70
     4
  0
LAYER
  5
10
330
2
100
AcDbSymbolTableRecord
100
AcDbLayerTableRecord
  2
0
 70
     0
 62
     7
  6
Continuous
370
    -3
390
F
347
46
348
0
  0
LAYER
  5
6E
330
2
100
AcDbSymbolTableRecord
100
AcDbLayerTableRecord
  2
Default
 70
     0
 62
     7
  6
Continuous
370
    -3
390
F
347
46
348
0
  0
LAYER
  5
7B
330
2
100
AcDbSymbolTableRecord
100
AcDbLayerTableRecord
  2
visible
 70
     0
 62
     7
  6
Continuous
370
    -3
390
F
347
46
348
0
  0
LAYER
  5
BC
330
2
100
AcDbSymbolTableRecord
100
AcDbLayerTableRecord
  2
hidden
 70
     0
 62
     7
  6
Continuous
370
    -3
390
F
347
46
348
0
  0
ENDTAB
  0
TABLE
  2
STYLE
  5
3
330
0
100
AcDbSymbolTable
 70
     3
  0
STYLE
  5
11
330
3
100
AcDbSymbolTableRecord
100
AcDbTextStyleTableRecord
  2
Standard
 70
     0
 40
0.0
 41
1.0
 50
0.0
 71
     0
 42
7.0
  3
txt
  4

  0
STYLE
  5
E6
330
3
100
AcDbSymbolTableRecord
100
AcDbTextStyleTableRecord
  2
SEACAD_Solid_Edge_ISO
 70
     0
 40
0.0
 41
1.0
 50
0.0
 71
     0
 42
2.5
  3
seiso.ttf
  4

1001
ACAD
1000
Solid Edge ISO
1071
        0
  0
STYLE
  5
E9
330
3
100
AcDbSymbolTableRecord
100
AcDbTextStyleTableRecord
  2
SEACAD_Solid_Edge_ISO1_Symbols
 70
     0
 40
0.0
 41
1.0
 50
0.0
 71
     0
 42
2.5
  3
semeci1.ttf
  4

1001
ACAD
1000
Solid Edge ISO1 Symbols
1071
        0
  0
ENDTAB
  0
TABLE
  2
VIEW
  5
6
330
0
100
AcDbSymbolTable
 70
     0
  0
ENDTAB
  0
TABLE
  2
UCS
  5
7
330
0
100
AcDbSymbolTable
 70
     0
  0
ENDTAB
  0
TABLE
  2
APPID
  5
9
330
0
100
AcDbSymbolTable
 70
     1
  0
APPID
  5
12
330
9
100
AcDbSymbolTableRecord
100
AcDbRegAppTableRecord
  2
ACAD
 70
     0
  0
ENDTAB
  0
TABLE
  2
DIMSTYLE
  5
A
330
0
100
AcDbSymbolTable
 70
     3
100
AcDbDimStyleTable
  0
DIMSTYLE
105
27
330
A
100
AcDbSymbolTableRecord
100
AcDbDimStyleTableRecord
  2
ISO-25
 70
     0
 41
2.5
 42
0.625
 43
3.75
 44
1.25
 73
     0
 74
     0
 77
     1
 78
     8
140
2.5
141
2.5
143
0.0393700787
147
0.625
171
     3
172
     1
178
     0
271
     2
272
     2
274
     3
278
    44
283
     0
284
     8
340
11
  0
DIMSTYLE
105
D4
330
A
100
AcDbSymbolTableRecord
100
AcDbDimStyleTableRecord
  2
Standard
 70
     0
178
     0
340
11
  0
DIMSTYLE
105
E7
102
{ACAD_REACTORS
330
E8
330
F2
330
FC
330
106
330
134
330
13E
330
148
330
152
102
}
330
A
100
AcDbSymbolTableRecord
100
AcDbDimStyleTableRecord
  2
Glasprofi24
 70
     0
 41
9.0
 42
0.0
 44
4.5
 73
     0
 74
     0
 77
     1
 78
     8
140
9.0
141
4.5
147
4.5
172
     1
173
     1
178
     0
179
     2
271
     2
272
     3
278
    44
284
     8
340
E6
343
E1
344
E1
  0
ENDTAB
  0
TABLE
  2
BLOCK_RECORD
  5
1
330
0
100
AcDbSymbolTable
 70
    22
  0
BLOCK_RECORD
  5
1F
330
1
100
AcDbSymbolTableRecord
100
AcDbBlockTableRecord
  2
*Model_Space
340
22
 70
     0
280
     1
281
     0
  0
BLOCK_RECORD
  5
1B
330
1
100
AcDbSymbolTableRecord
100
AcDbBlockTableRecord
  2
*Paper_Space
340
1E
 70
     0
280
     1
281
     0
  0
BLOCK_RECORD
  5
6F
330
1
100
AcDbSymbolTableRecord
100
AcDbBlockTableRecord
  2
SEANNOT_GROUP
340
0
102
{BLKREFS
331
70
102
}
 70
     0
280
     1
281
     0
  0
BLOCK_RECORD
  5
74
330
1
100
AcDbSymbolTableRecord
100
AcDbBlockTableRecord
  2
SEANNOT_GROUP1
340
0
102
{BLKREFS
331
75
102
}
 70
     0
280
     1
281
     0
  0
BLOCK_RECORD
  5
79
330
1
100
AcDbSymbolTableRecord
100
AcDbBlockTableRecord
  2
SE
340
0
102
{BLKREFS
331
7A
102
}
 70
     0
280
     1
281
     0
  0
BLOCK_RECORD
  5
D5
330
1
100
AcDbSymbolTableRecord
100
AcDbBlockTableRecord
  2
_OBLIQUE
340
0
 70
     0
280
     1
281
     0
  0
BLOCK_RECORD
  5
D9
330
1
100
AcDbSymbolTableRecord
100
AcDbBlockTableRecord
  2
_DOT
340
0
 70
     0
280
     1
281
     0
  0
BLOCK_RECORD
  5
E1
330
1
100
AcDbSymbolTableRecord
100
AcDbBlockTableRecord
  2
_SE_FILLED
340
0
 70
     0
280
     1
281
     0
  0
BLOCK_RECORD
  5
EA
330
1
100
AcDbSymbolTableRecord
100
AcDbBlockTableRecord
  2
DMBLK1
340
0
 70
     0
280
     1
281
     0
  0
BLOCK_RECORD
  5
F3
330
1
100
AcDbSymbolTableRecord
100
AcDbBlockTableRecord
  2
DMBLK2
340
0
 70
     0
280
     1
281
     0
  0
BLOCK_RECORD
  5
FD
330
1
100
AcDbSymbolTableRecord
100
AcDbBlockTableRecord
  2
DMBLK3
340
0
 70
     0
280
     1
281
     0
  0
BLOCK_RECORD
  5
107
330
1
100
AcDbSymbolTableRecord
100
AcDbBlockTableRecord
  2
DMBLK4
340
0
 70
     0
280
     1
281
     0
  0
BLOCK_RECORD
  5
110
330
1
100
AcDbSymbolTableRecord
100
AcDbBlockTableRecord
  2
SE1
340
0
102
{BLKREFS
331
111
102
}
 70
     0
280
     1
281
     0
  0
BLOCK_RECORD
  5
135
330
1
100
AcDbSymbolTableRecord
100
AcDbBlockTableRecord
  2
DMBLK5
340
0
 70
     0
280
     1
281
     0
  0
BLOCK_RECORD
  5
13F
330
1
100
AcDbSymbolTableRecord
100
AcDbBlockTableRecord
  2
DMBLK6
340
0
 70
     0
280
     1
281
     0
  0
BLOCK_RECORD
  5
149
330
1
100
AcDbSymbolTableRecord
100
AcDbBlockTableRecord
  2
DMBLK7
340
0
 70
     0
280
     1
281
     0
  0
BLOCK_RECORD
  5
153
330
1
100
AcDbSymbolTableRecord
100
AcDbBlockTableRecord
  2
DMBLK8
340
0
 70
     0
280
     1
281
     0
  0
BLOCK_RECORD
  5
15C
330
1
100
AcDbSymbolTableRecord
100
AcDbBlockTableRecord
  2
SE2
340
0
102
{BLKREFS
331
15D
102
}
 70
     0
280
     1
281
     0
  0
BLOCK_RECORD
  5
1F7
330
1
100
AcDbSymbolTableRecord
100
AcDbBlockTableRecord
  2
SEANNOT_GROUP2
340
0
102
{BLKREFS
331
213
102
}
 70
     0
280
     1
281
     0
  0
BLOCK_RECORD
  5
1FA
330
1
100
AcDbSymbolTableRecord
100
AcDbBlockTableRecord
  2
SEANNOT_GROUP3
340
0
102
{BLKREFS
331
223
102
}
 70
     0
280
     1
281
     0
  0
BLOCK_RECORD
  5
200
330
1
100
AcDbSymbolTableRecord
100
AcDbBlockTableRecord
  2
SEANNOT_GROUP4
340
0
102
{BLKREFS
331
24A
102
}
 70
     0
280
     1
281
     0
  0
BLOCK_RECORD
  5
204
330
1
100
AcDbSymbolTableRecord
100
AcDbBlockTableRecord
  2
Logo_ETG
340
0
102
{BLKREFS
331
24C
102
}
 70
     0
280
     1
281
     0
  0
BLOCK_RECORD
  5
208
330
1
100
AcDbSymbolTableRecord
100
AcDbBlockTableRecord
  2
Block1
340
0
102
{BLKREFS
331
250
102
}
 70
     0
280
     1
281
     0
  0
ENDTAB
  0
ENDSEC
  0
SECTION
  2
BLOCKS
  0
BLOCK
  5
20
330
1F
100
AcDbEntity
  8
0
100
AcDbBlockBegin
  2
*Model_Space
 70
     0
 10
0.0
 20
0.0
 30
0.0
  3
*Model_Space
  1

  0
ENDBLK
  5
21
330
1F
100
AcDbEntity
  8
0
100
AcDbBlockEnd
  0
BLOCK
  5
1C
330
1B
100
AcDbEntity
 67
     1
  8
0
100
AcDbBlockBegin
  2
*Paper_Space
 70
     0
 10
0.0
 20
0.0
 30
0.0
  3
*Paper_Space
  1

  0
ENDBLK
  5
1D
330
1B
100
AcDbEntity
 67
     1
  8
0
100
AcDbBlockEnd
  0
BLOCK
  5
72
330
6F
100
AcDbEntity
  8
0
100
AcDbBlockBegin
  2
SEANNOT_GROUP
 70
     0
 10
0.0
 20
0.0
 30
0.0
  3
SEANNOT_GROUP
  1

  0
LINE
  5
71
330
6F
100
AcDbEntity
  8
Default
  6
Continuous
 62
     7
100
AcDbLine
 10
231.5571178751
 20
277.4211080382
 30
0.0
 11
231.5571178751
 21
301.4211080382
 31
0.0
  0
ENDBLK
  5
73
330
6F
100
AcDbEntity
  8
0
100
AcDbBlockEnd
  0
BLOCK
  5
77
330
74
100
AcDbEntity
  8
0
100
AcDbBlockBegin
  2
SEANNOT_GROUP1
 70
     0
 10
0.0
 20
0.0
 30
0.0
  3
SEANNOT_GROUP1
  1

  0
LINE
  5
76
330
74
100
AcDbEntity
  8
Default
  6
Continuous
 62
     7
100
AcDbLine
 10
481.5571178751
 20
277.4211080382
 30
0.0
 11
481.5571178751
 21
301.4211080382
 31
0.0
  0
ENDBLK
  5
78
330
74
100
AcDbEntity
  8
0
100
AcDbBlockEnd
  0
BLOCK
  5
D2
330
79
100
AcDbEntity
  8
0
100
AcDbBlockBegin
  2
SE
 70
     0
 10
0.0
 20
0.0
 30
0.0
  3
SE
  1

  0
LINE
  5
7C
330
79
100
AcDbEntity
  8
visible
  6
Continuous
 62
     7
100
AcDbLine
 10
556.5571178751
 20
350.5211080382
 30
0.0
 11
556.5571178751
 21
335.5211080382
 31
0.0
  0
LINE
  5
7D
330
79
100
AcDbEntity
  8
visible
  6
Continuous
 62
     7
100
AcDbLine
 10
156.5571178751
 20
350.5211080382
 30
0.0
 11
156.5571178751
 21
335.5211080382
 31
0.0
  0
LINE
  5
7E
330
79
100
AcDbEntity
  8
visible
  6
Continuous
 62
     7
100
AcDbLine
 10
556.5571178751
 20
335.5211080382
 30
0.0
 11
489.0571178751
 21
335.5211080382
 31
0.0
  0
LINE
  5
7F
330
79
100
AcDbEntity
  8
visible
  6
Continuous
 62
     7
100
AcDbLine
 10
556.5571178751
 20
350.5211080382
 30
0.0
 11
156.5571178751
 21
350.5211080382
 31
0.0
  0
LINE
  5
80
330
79
100
AcDbEntity
  8
visible
  6
Continuous
 62
     7
100
AcDbLine
 10
474.0571178751
 20
335.5211080382
 30
0.0
 11
239.0571178751
 21
335.5211080382
 31
0.0
  0
LINE
  5
81
330
79
100
AcDbEntity
  8
visible
  6
Continuous
 62
     7
100
AcDbLine
 10
474.0571178751
 20
295.5211080382
 30
0.0
 11
489.0571178751
 21
295.5211080382
 31
0.0
  0
LINE
  5
82
330
79
100
AcDbEntity
  8
visible
  6
Continuous
 62
     7
100
AcDbLine
 10
489.0571178751
 20
295.5211080382
 30
0.0
 11
489.0571178751
 21
335.5211080382
 31
0.0
  0
LINE
  5
83
330
79
100
AcDbEntity
  8
visible
  6
Continuous
 62
     7
100
AcDbLine
 10
474.0571178751
 20
295.5211080382
 30
0.0
 11
474.0571178751
 21
335.5211080382
 31
0.0
  0
LINE
  5
84
330
79
100
AcDbEntity
  8
visible
  6
Continuous
 62
     7
100
AcDbLine
 10
224.0571178751
 20
335.5211080382
 30
0.0
 11
156.5571178751
 21
335.5211080382
 31
0.0
  0
LINE
  5
85
330
79
100
AcDbEntity
  8
visible
  6
Continuous
 62
     7
100
AcDbLine
 10
239.0571178751
 20
295.5211080382
 30
0.0
 11
239.0571178751
 21
335.5211080382
 31
0.0
  0
LINE
  5
86
330
79
100
AcDbEntity
  8
visible
  6
Continuous
 62
     7
100
AcDbLine
 10
224.0571178751
 20
295.5211080382
 30
0.0
 11
224.0571178751
 21
335.5211080382
 31
0.0
  0
LINE
  5
87
330
79
100
AcDbEntity
  8
visible
  6
Continuous
 62
     7
100
AcDbLine
 10
239.0571178751
 20
295.5211080382
 30
0.0
 11
224.0571178751
 21
295.5211080382
 31
0.0
  0
LINE
  5
88
330
79
100
AcDbEntity
  8
visible
  6
Continuous
 62
     7
100
AcDbLine
 10
489.0571178751
 20
243.3211080382
 30
0.0
 11
489.0571178751
 21
283.3211080382
 31
0.0
  0
LINE
  5
89
330
79
100
AcDbEntity
  8
visible
  6
Continuous
 62
     7
100
AcDbLine
 10
474.0571178751
 20
243.3211080382
 30
0.0
 11
474.0571178751
 21
283.3211080382
 31
0.0
  0
LINE
  5
8A
330
79
100
AcDbEntity
  8
visible
  6
Continuous
 62
     7
100
AcDbLine
 10
489.0571178751
 20
283.3211080382
 30
0.0
 11
474.0571178751
 21
283.3211080382
 31
0.0
  0
LINE
  5
8B
330
79
100
AcDbEntity
  8
visible
  6
Continuous
 62
     7
100
AcDbLine
 10
239.0571178751
 20
283.3211080382
 30
0.0
 11
224.0571178751
 21
283.3211080382
 31
0.0
  0
LINE
  5
8C
330
79
100
AcDbEntity
  8
visible
  6
Continuous
 62
     7
100
AcDbLine
 10
239.0571178751
 20
243.3211080382
 30
0.0
 11
239.0571178751
 21
283.3211080382
 31
0.0
  0
LINE
  5
8D
330
79
100
AcDbEntity
  8
visible
  6
Continuous
 62
     7
100
AcDbLine
 10
224.0571178751
 20
243.3211080382
 30
0.0
 11
224.0571178751
 21
283.3211080382
 31
0.0
  0
LINE
  5
8E
330
79
100
AcDbEntity
  8
visible
  6
Continuous
 62
     7
100
AcDbLine
 10
556.5571178751
 20
243.3211080382
 30
0.0
 11
489.0571178751
 21
243.3211080382
 31
0.0
  0
LINE
  5
8F
330
79
100
AcDbEntity
  8
visible
  6
Continuous
 62
     7
100
AcDbLine
 10
474.0571178751
 20
243.3211080382
 30
0.0
 11
239.0571178751
 21
243.3211080382
 31
0.0
  0
LINE
  5
90
330
79
100
AcDbEntity
  8
visible
  6
Continuous
 62
     7
100
AcDbLine
 10
224.0571178751
 20
243.3211080382
 30
0.0
 11
156.5571178751
 21
243.3211080382
 31
0.0
  0
LINE
  5
91
330
79
100
AcDbEntity
  8
visible
  6
Continuous
 62
     7
100
AcDbLine
 10
556.5571178751
 20
228.3211080382
 30
0.0
 11
556.5571178751
 21
243.3211080382
 31
0.0
  0
LINE
  5
92
330
79
100
AcDbEntity
  8
visible
  6
Continuous
 62
     7
100
AcDbLine
 10
156.5571178751
 20
228.3211080382
 30
0.0
 11
156.5571178751
 21
243.3211080382
 31
0.0
  0
LINE
  5
93
330
79
100
AcDbEntity
  8
visible
  6
Continuous
 62
     7
100
AcDbLine
 10
556.5571178751
 20
228.3211080382
 30
0.0
 11
156.5571178751
 21
228.3211080382
 31
0.0
  0
LINE
  5
94
330
79
100
AcDbEntity
  8
visible
  6
Continuous
 62
     7
100
AcDbLine
 10
224.0571178751
 20
294.4211080382
 30
0.0
 11
224.0571178751
 21
295.4211080382
 31
0.0
  0
LINE
  5
95
330
79
100
AcDbEntity
  8
visible
  6
Continuous
 62
     7
100
AcDbLine
 10
224.0571178751
 20
295.4211080382
 30
0.0
 11
226.0571178751
 21
295.4211080382
 31
0.0
  0
LINE
  5
96
330
79
100
AcDbEntity
  8
visible
  6
Continuous
 62
     7
100
AcDbLine
 10
226.0571178751
 20
294.4211080382
 30
0.0
 11
224.0571178751
 21
294.4211080382
 31
0.0
  0
LINE
  5
97
330
79
100
AcDbEntity
  8
visible
  6
Continuous
 62
     7
100
AcDbLine
 10
487.0571178751
 20
284.4211080382
 30
0.0
 11
476.0571178751
 21
284.4211080382
 31
0.0
  0
LINE
  5
98
330
79
100
AcDbEntity
  8
visible
  6
Continuous
 62
     7
100
AcDbLine
 10
487.0571178751
 20
283.4211080382
 30
0.0
 11
476.0571178751
 21
283.4211080382
 31
0.0
  0
LINE
  5
99
330
79
100
AcDbEntity
  8
visible
  6
Continuous
 62
     7
100
AcDbLine
 10
487.0571178751
 20
284.4211080382
 30
0.0
 11
489.0571178751
 21
284.4211080382
 31
0.0
  0
LINE
  5
9A
330
79
100
AcDbEntity
  8
visible
  6
Continuous
 62
     7
100
AcDbLine
 10
489.0571178751
 20
284.4211080382
 30
0.0
 11
489.0571178751
 21
283.4211080382
 31
0.0
  0
LINE
  5
9B
330
79
100
AcDbEntity
  8
visible
  6
Continuous
 62
     7
100
AcDbLine
 10
489.0571178751
 20
283.4211080382
 30
0.0
 11
487.0571178751
 21
283.4211080382
 31
0.0
  0
LINE
  5
9C
330
79
100
AcDbEntity
  8
visible
  6
Continuous
 62
     7
100
AcDbLine
 10
474.0571178751
 20
283.4211080382
 30
0.0
 11
474.0571178751
 21
284.4211080382
 31
0.0
  0
LINE
  5
9D
330
79
100
AcDbEntity
  8
visible
  6
Continuous
 62
     7
100
AcDbLine
 10
474.0571178751
 20
284.4211080382
 30
0.0
 11
476.0571178751
 21
284.4211080382
 31
0.0
  0
LINE
  5
9E
330
79
100
AcDbEntity
  8
visible
  6
Continuous
 62
     7
100
AcDbLine
 10
476.0571178751
 20
283.4211080382
 30
0.0
 11
474.0571178751
 21
283.4211080382
 31
0.0
  0
LINE
  5
9F
330
79
100
AcDbEntity
  8
visible
  6
Continuous
 62
     7
100
AcDbLine
 10
474.0571178751
 20
294.4211080382
 30
0.0
 11
474.0571178751
 21
295.4211080382
 31
0.0
  0
LINE
  5
A0
330
79
100
AcDbEntity
  8
visible
  6
Continuous
 62
     7
100
AcDbLine
 10
474.0571178751
 20
295.4211080382
 30
0.0
 11
476.0571178751
 21
295.4211080382
 31
0.0
  0
LINE
  5
A1
330
79
100
AcDbEntity
  8
visible
  6
Continuous
 62
     7
100
AcDbLine
 10
476.0571178751
 20
294.4211080382
 30
0.0
 11
474.0571178751
 21
294.4211080382
 31
0.0
  0
LINE
  5
A2
330
79
100
AcDbEntity
  8
visible
  6
Continuous
 62
     7
100
AcDbLine
 10
487.0571178751
 20
295.4211080382
 30
0.0
 11
476.0571178751
 21
295.4211080382
 31
0.0
  0
LINE
  5
A3
330
79
100
AcDbEntity
  8
visible
  6
Continuous
 62
     7
100
AcDbLine
 10
487.0571178751
 20
294.4211080382
 30
0.0
 11
476.0571178751
 21
294.4211080382
 31
0.0
  0
LINE
  5
A4
330
79
100
AcDbEntity
  8
visible
  6
Continuous
 62
     7
100
AcDbLine
 10
487.0571178751
 20
295.4211080382
 30
0.0
 11
489.0571178751
 21
295.4211080382
 31
0.0
  0
LINE
  5
A5
330
79
100
AcDbEntity
  8
visible
  6
Continuous
 62
     7
100
AcDbLine
 10
489.0571178751
 20
295.4211080382
 30
0.0
 11
489.0571178751
 21
294.4211080382
 31
0.0
  0
LINE
  5
A6
330
79
100
AcDbEntity
  8
visible
  6
Continuous
 62
     7
100
AcDbLine
 10
489.0571178751
 20
294.4211080382
 30
0.0
 11
487.0571178751
 21
294.4211080382
 31
0.0
  0
LINE
  5
A7
330
79
100
AcDbEntity
  8
visible
  6
Continuous
 62
     7
100
AcDbLine
 10
224.0571178751
 20
283.4211080382
 30
0.0
 11
224.0571178751
 21
284.4211080382
 31
0.0
  0
LINE
  5
A8
330
79
100
AcDbEntity
  8
visible
  6
Continuous
 62
     7
100
AcDbLine
 10
224.0571178751
 20
284.4211080382
 30
0.0
 11
226.0571178751
 21
284.4211080382
 31
0.0
  0
LINE
  5
A9
330
79
100
AcDbEntity
  8
visible
  6
Continuous
 62
     7
100
AcDbLine
 10
226.0571178751
 20
283.4211080382
 30
0.0
 11
224.0571178751
 21
283.4211080382
 31
0.0
  0
LINE
  5
AA
330
79
100
AcDbEntity
  8
visible
  6
Continuous
 62
     7
100
AcDbLine
 10
237.0571178751
 20
284.4211080382
 30
0.0
 11
226.0571178751
 21
284.4211080382
 31
0.0
  0
LINE
  5
AB
330
79
100
AcDbEntity
  8
visible
  6
Continuous
 62
     7
100
AcDbLine
 10
237.0571178751
 20
283.4211080382
 30
0.0
 11
226.0571178751
 21
283.4211080382
 31
0.0
  0
LINE
  5
AC
330
79
100
AcDbEntity
  8
visible
  6
Continuous
 62
     7
100
AcDbLine
 10
237.0571178751
 20
284.4211080382
 30
0.0
 11
239.0571178751
 21
284.4211080382
 31
0.0
  0
LINE
  5
AD
330
79
100
AcDbEntity
  8
visible
  6
Continuous
 62
     7
100
AcDbLine
 10
239.0571178751
 20
284.4211080382
 30
0.0
 11
239.0571178751
 21
283.4211080382
 31
0.0
  0
LINE
  5
AE
330
79
100
AcDbEntity
  8
visible
  6
Continuous
 62
     7
100
AcDbLine
 10
239.0571178751
 20
283.4211080382
 30
0.0
 11
237.0571178751
 21
283.4211080382
 31
0.0
  0
LINE
  5
AF
330
79
100
AcDbEntity
  8
visible
  6
Continuous
 62
     7
100
AcDbLine
 10
237.0571178751
 20
295.4211080382
 30
0.0
 11
226.0571178751
 21
295.4211080382
 31
0.0
  0
LINE
  5
B0
330
79
100
AcDbEntity
  8
visible
  6
Continuous
 62
     7
100
AcDbLine
 10
237.0571178751
 20
294.4211080382
 30
0.0
 11
226.0571178751
 21
294.4211080382
 31
0.0
  0
LINE
  5
B1
330
79
100
AcDbEntity
  8
visible
  6
Continuous
 62
     7
100
AcDbLine
 10
237.0571178751
 20
295.4211080382
 30
0.0
 11
239.0571178751
 21
295.4211080382
 31
0.0
  0
LINE
  5
B2
330
79
100
AcDbEntity
  8
visible
  6
Continuous
 62
     7
100
AcDbLine
 10
239.0571178751
 20
295.4211080382
 30
0.0
 11
239.0571178751
 21
294.4211080382
 31
0.0
  0
LINE
  5
B3
330
79
100
AcDbEntity
  8
visible
  6
Continuous
 62
     7
100
AcDbLine
 10
239.0571178751
 20
294.4211080382
 30
0.0
 11
237.0571178751
 21
294.4211080382
 31
0.0
  0
CIRCLE
  5
B4
330
79
100
AcDbEntity
  8
visible
  6
Continuous
 62
     7
100
AcDbCircle
 10
231.5571178751
 20
304.5211080382
 30
0.0
 40
2.4585
  0
CIRCLE
  5
B5
330
79
100
AcDbEntity
  8
visible
  6
Continuous
 62
     7
100
AcDbCircle
 10
481.5571178751
 20
304.5211080382
 30
0.0
 40
2.4585
  0
LINE
  5
B6
330
79
100
AcDbEntity
  8
visible
  6
Continuous
 62
     7
100
AcDbLine
 10
225.5571178751
 20
294.4211080382
 30
0.0
 11
225.5571178751
 21
284.4211080382
 31
0.0
  0
LINE
  5
B7
330
79
100
AcDbEntity
  8
visible
  6
Continuous
 62
     7
100
AcDbLine
 10
237.5571178751
 20
284.4211080382
 30
0.0
 11
237.5571178751
 21
294.4211080382
 31
0.0
  0
LINE
  5
B8
330
79
100
AcDbEntity
  8
visible
  6
Continuous
 62
     7
100
AcDbLine
 10
475.5571178751
 20
294.4211080382
 30
0.0
 11
475.5571178751
 21
284.4211080382
 31
0.0
  0
LINE
  5
B9
330
79
100
AcDbEntity
  8
visible
  6
Continuous
 62
     7
100
AcDbLine
 10
487.5571178751
 20
284.4211080382
 30
0.0
 11
487.5571178751
 21
294.4211080382
 31
0.0
  0
ARC
  5
BA
330
79
100
AcDbEntity
  8
visible
  6
Continuous
 62
     7
100
AcDbCircle
 10
231.5571178751
 20
304.5211080382
 30
0.0
 40
3.0
100
AcDbArc
 50
255.0
 51
195.0
  0
ARC
  5
BB
330
79
100
AcDbEntity
  8
visible
  6
Continuous
 62
     7
100
AcDbCircle
 10
481.5571178751
 20
304.5211080382
 30
0.0
 40
3.0
100
AcDbArc
 50
255.0
 51
195.0
  0
CIRCLE
  5
BE
330
79
100
AcDbEntity
  8
hidden
  6
HIDDEN2
 62
     7
100
AcDbCircle
 10
481.5571178751
 20
304.5211080382
 30
0.0
 40
0.75
  0
LINE
  5
BF
330
79
100
AcDbEntity
  8
visible
  6
Continuous
 62
     7
100
AcDbLine
 10
482.7933398777
 20
303.307948873
 30
0.0
 11
483.2258555323
 21
304.9851281146
 31
0.0
  0
LINE
  5
C0
330
79
100
AcDbEntity
  8
visible
  6
Continuous
 62
     7
100
AcDbLine
 10
483.2258555323
 20
304.9851281146
 30
0.0
 11
481.9896335296
 21
306.1982872798
 31
0.0
  0
LINE
  5
C1
330
79
100
AcDbEntity
  8
visible
  6
Continuous
 62
     7
100
AcDbLine
 10
481.9896335296
 20
306.1982872798
 30
0.0
 11
480.3208958724
 21
305.7342672034
 31
0.0
  0
LINE
  5
C2
330
79
100
AcDbEntity
  8
visible
  6
Continuous
 62
     7
100
AcDbLine
 10
480.3208958724
 20
305.7342672034
 30
0.0
 11
479.8883802178
 21
304.0570879617
 31
0.0
  0
LINE
  5
C3
330
79
100
AcDbEntity
  8
visible
  6
Continuous
 62
     7
100
AcDbLine
 10
479.8883802178
 20
304.0570879617
 30
0.0
 11
481.1246022205
 21
302.8439287965
 31
0.0
  0
LINE
  5
C4
330
79
100
AcDbEntity
  8
visible
  6
Continuous
 62
     7
100
AcDbLine
 10
481.1246022205
 20
302.8439287965
 30
0.0
 11
482.7933398777
 21
303.307948873
 31
0.0
  0
CIRCLE
  5
C5
330
79
100
AcDbEntity
  8
hidden
  6
HIDDEN2
 62
     7
100
AcDbCircle
 10
481.5571178751
 20
304.5211080382
 30
0.0
 40
2.999999999999998
  0
CIRCLE
  5
C6
330
79
100
AcDbEntity
  8
visible
  6
Continuous
 62
     7
100
AcDbCircle
 10
481.5571178751
 20
304.5211080382
 30
0.0
 40
2.799999999999998
  0
ARC
  5
C7
330
79
100
AcDbEntity
  8
hidden
  6
HIDDEN2
 62
     7
100
AcDbCircle
 10
481.5571178751
 20
304.5211080382
 30
0.0
 40
2.3865
100
AcDbArc
 50
255.0
 51
195.0
  0
CIRCLE
  5
C8
330
79
100
AcDbEntity
  8
hidden
  6
HIDDEN2
 62
     7
100
AcDbCircle
 10
231.5571178751
 20
304.5211080382
 30
0.0
 40
0.75
  0
LINE
  5
C9
330
79
100
AcDbEntity
  8
visible
  6
Continuous
 62
     7
100
AcDbLine
 10
230.5014721964
 20
303.147932084
 30
0.0
 11
232.2185002959
 21
302.9203040859
 31
0.0
  0
LINE
  5
CA
330
79
100
AcDbEntity
  8
visible
  6
Continuous
 62
     7
100
AcDbLine
 10
232.2185002959
 20
302.9203040859
 30
0.0
 11
233.2741459746
 21
304.2934800401
 31
0.0
  0
LINE
  5
CB
330
79
100
AcDbEntity
  8
visible
  6
Continuous
 62
     7
100
AcDbLine
 10
233.2741459746
 20
304.2934800401
 30
0.0
 11
232.6127635538
 21
305.8942839923
 31
0.0
  0
LINE
  5
CC
330
79
100
AcDbEntity
  8
visible
  6
Continuous
 62
     7
100
AcDbLine
 10
232.6127635538
 20
305.8942839923
 30
0.0
 11
230.8957354543
 21
306.1219119904
 31
0.0
  0
LINE
  5
CD
330
79
100
AcDbEntity
  8
visible
  6
Continuous
 62
     7
100
AcDbLine
 10
230.8957354543
 20
306.1219119904
 30
0.0
 11
229.8400897756
 21
304.7487360362
 31
0.0
  0
LINE
  5
CE
330
79
100
AcDbEntity
  8
visible
  6
Continuous
 62
     7
100
AcDbLine
 10
229.8400897756
 20
304.7487360362
 30
0.0
 11
230.5014721964
 21
303.147932084
 31
0.0
  0
CIRCLE
  5
CF
330
79
100
AcDbEntity
  8
hidden
  6
HIDDEN2
 62
     7
100
AcDbCircle
 10
231.5571178751
 20
304.5211080382
 30
0.0
 40
2.999999999999998
  0
CIRCLE
  5
D0
330
79
100
AcDbEntity
  8
visible
  6
Continuous
 62
     7
100
AcDbCircle
 10
231.5571178751
 20
304.5211080382
 30
0.0
 40
2.799999999999998
  0
ARC
  5
D1
330
79
100
AcDbEntity
  8
hidden
  6
HIDDEN2
 62
     7
100
AcDbCircle
 10
231.5571178751
 20
304.5211080382
 30
0.0
 40
2.3865
100
AcDbArc
 50
255.0
 51
195.0
  0
ENDBLK
  5
D3
330
79
100
AcDbEntity
  8
0
100
AcDbBlockEnd
  0
BLOCK
  5
D6
330
D5
100
AcDbEntity
  8
0
100
AcDbBlockBegin
  2
_OBLIQUE
 70
     0
 10
0.0
 20
0.0
 30
0.0
  3
_OBLIQUE
  1

  0
LINE
  5
D8
330
D5
100
AcDbEntity
  8
0
  6
ByBlock
 62
     0
370
    -2
100
AcDbLine
 10
-0.5
 20
-0.5
 30
0.0
 11
0.5
 21
0.5
 31
0.0
  0
ENDBLK
  5
D7
330
D5
100
AcDbEntity
  8
0
100
AcDbBlockEnd
  0
BLOCK
  5
DA
330
D9
100
AcDbEntity
  8
0
100
AcDbBlockBegin
  2
_DOT
 70
     0
 10
0.0
 20
0.0
 30
0.0
  3
_DOT
  1

  0
POLYLINE
  5
DC
330
D9
100
AcDbEntity
  8
0
  6
ByBlock
 62
     0
100
AcDb2dPolyline
 66
     1
 10
0.0
 20
0.0
 30
0.0
 70
     1
 40
0.5
 41
0.5
  0
VERTEX
  5
DE
330
DC
100
AcDbEntity
  8
0
  6
ByBlock
 62
     0
100
AcDbVertex
100
AcDb2dVertex
 10
-0.25
 20
0.0
 30
0.0
 42
1.0
  0
VERTEX
  5
DF
330
DC
100
AcDbEntity
  8
0
  6
ByBlock
 62
     0
100
AcDbVertex
100
AcDb2dVertex
 10
0.25
 20
0.0
 30
0.0
 42
1.0
  0
SEQEND
  5
E0
330
DC
100
AcDbEntity
  8
0
  6
ByBlock
 62
     0
  0
LINE
  5
DD
330
D9
100
AcDbEntity
  8
0
  6
ByBlock
 62
     0
370
    -2
100
AcDbLine
 10
-0.5
 20
0.0
 30
0.0
 11
-1.0
 21
0.0
 31
0.0
  0
ENDBLK
  5
DB
330
D9
100
AcDbEntity
  8
0
100
AcDbBlockEnd
  0
BLOCK
  5
E4
330
E1
100
AcDbEntity
  8
0
100
AcDbBlockBegin
  2
_SE_FILLED
 70
     0
 10
0.0
 20
0.0
 30
0.0
  3
_SE_FILLED
  1

  0
SOLID
  5
E2
330
E1
100
AcDbEntity
  8
0
 62
     0
100
AcDbTrace
 10
0.0
 20
0.0
 30
0.0
 11
-1.0
 21
-0.1665
 31
0.0
 12
-1.0
 22
0.1665
 32
0.0
 13
0.0
 23
0.0
 33
0.0
  0
LINE
  5
E3
330
E1
100
AcDbEntity
  8
0
 62
     0
100
AcDbLine
 10
0.0
 20
0.0
 30
0.0
 11
-1.0
 21
0.0
 31
0.0
  0
ENDBLK
  5
E5
330
E1
100
AcDbEntity
  8
0
100
AcDbBlockEnd
  0
BLOCK
  5
F0
330
EA
100
AcDbEntity
  8
0
100
AcDbBlockBegin
  2
DMBLK1
 70
     0
 10
0.0
 20
0.0
 30
0.0
  3
DMBLK1
  1

  0
HATCH
  5
EB
330
EA
100
AcDbEntity
  8
Default
  6
Continuous
 62
     7
100
AcDbHatch
 10
0.0
 20
0.0
 30
0.0
210
0.0
220
0.0
230
1.0
  2
SOLID
 70
     1
 71
     0
 91
        1
 92
        1
 93
        3
 72
     1
 10
496.5571174876354
 20
290.7780571800377
 11
487.5571178750656
 21
289.2780572446094
 72
     1
 10
487.5571178750656
 20
289.2780572446094
 11
496.5571174876354
 21
287.7780573091811
 72
     1
 10
496.5571174876354
 20
287.7780573091811
 11
496.5571174876354
 21
290.7780571800377
 97
        0
 75
     0
 76
     1
 98
        0
  0
HATCH
  5
EC
330
EA
100
AcDbEntity
  8
Default
  6
Continuous
 62
     7
100
AcDbHatch
 10
0.0
 20
0.0
 30
0.0
210
0.0
220
0.0
230
1.0
  2
SOLID
 70
     1
 71
     0
 91
        1
 92
        1
 93
        3
 72
     1
 10
466.5571182624958
 20
290.7780571800377
 11
466.5571182624958
 21
287.7780573091811
 72
     1
 10
466.5571182624958
 20
287.7780573091811
 11
475.5571178750656
 21
289.2780572446094
 72
     1
 10
475.5571178750656
 20
289.2780572446094
 11
466.5571182624958
 21
290.7780571800377
 97
        0
 75
     0
 76
     1
 98
        0
  0
LINE
  5
ED
330
EA
100
AcDbEntity
  8
Default
  6
Continuous
 62
     7
100
AcDbLine
 10
534.8066734628
 20
289.2780572446
 30
0.0
 11
457.5571185456
 21
289.2780572446
 31
0.0
  0
TEXT
  5
EE
330
EA
100
AcDbEntity
  8
Default
  6
Continuous
 62
     7
100
AcDbText
 10
522.4521273431
 20
291.5280572446
 30
0.0
 40
9.0
  1
12
  7
SEACAD_Solid_Edge_ISO
 11
522.4521273431
 21
300.5280572446
 31
0.0
100
AcDbText
 73
     3
  0
TEXT
  5
EF
330
EA
100
AcDbEntity
  8
Default
  6
Continuous
 62
     7
100
AcDbText
 10
505.8889694484
 20
291.5280572446
 30
0.0
 40
9.0
  1
O
  7
SEACAD_Solid_Edge_ISO1_Symbols
 11
505.8889694484
 21
300.5280572446
 31
0.0
100
AcDbText
 73
     3
  0
ENDBLK
  5
F1
330
EA
100
AcDbEntity
  8
0
100
AcDbBlockEnd
  0
BLOCK
  5
FA
330
F3
100
AcDbEntity
  8
0
100
AcDbBlockBegin
  2
DMBLK2
 70
     0
 10
0.0
 20
0.0
 30
0.0
  3
DMBLK2
  1

  0
HATCH
  5
F4
330
F3
100
AcDbEntity
  8
Default
  6
Continuous
 62
     7
100
AcDbHatch
 10
0.0
 20
0.0
 30
0.0
210
0.0
220
0.0
230
1.0
  2
SOLID
 70
     1
 71
     0
 91
        1
 92
        1
 93
        3
 72
     1
 10
547.5571182624959
 20
377.3553451169934
 11
547.5571182624959
 21
374.3553452461368
 72
     1
 10
547.5571182624959
 20
374.3553452461368
 11
556.5571178750657
 21
375.8553451815651
 72
     1
 10
556.5571178750657
 20
375.8553451815651
 11
547.5571182624959
 21
377.3553451169934
 97
        0
 75
     0
 76
     1
 98
        0
  0
HATCH
  5
F5
330
F3
100
AcDbEntity
  8
Default
  6
Continuous
 62
     7
100
AcDbHatch
 10
0.0
 20
0.0
 30
0.0
210
0.0
220
0.0
230
1.0
  2
SOLID
 70
     1
 71
     0
 91
        1
 92
        1
 93
        3
 72
     1
 10
165.557111527171
 20
377.3553451169934
 11
156.5571119146012
 21
375.8553451815651
 72
     1
 10
156.5571119146012
 20
375.8553451815651
 11
165.557111527171
 21
374.3553452461368
 72
     1
 10
165.557111527171
 20
374.3553452461368
 11
165.557111527171
 21
377.3553451169934
 97
        0
 75
     0
 76
     1
 98
        0
  0
LINE
  5
F6
330
F3
100
AcDbEntity
  8
Default
  6
Continuous
 62
     7
100
AcDbLine
 10
556.5571178751
 20
350.5211080382
 30
0.0
 11
556.5571178751
 21
380.3553449879
 31
0.0
  0
LINE
  5
F7
330
F3
100
AcDbEntity
  8
Default
  6
Continuous
 62
     7
100
AcDbLine
 10
156.5571178751
 20
350.5211080382
 30
0.0
 11
156.5571178751
 21
380.3553449879
 31
0.0
  0
LINE
  5
F8
330
F3
100
AcDbEntity
  8
Default
  6
Continuous
 62
     7
100
AcDbLine
 10
556.5571178751
 20
375.8553451816
 30
0.0
 11
156.5571119146
 21
375.8553451816
 31
0.0
  0
TEXT
  5
F9
330
F3
100
AcDbEntity
  8
Default
  6
Continuous
 62
     7
100
AcDbText
 10
348.5798421676
 20
378.1053451816
 30
0.0
 40
9.0
  1
400
  7
SEACAD_Solid_Edge_ISO
 11
348.5798421676
 21
387.1053451816
 31
0.0
100
AcDbText
 73
     3
  0
ENDBLK
  5
FB
330
F3
100
AcDbEntity
  8
0
100
AcDbBlockEnd
  0
BLOCK
  5
104
330
FD
100
AcDbEntity
  8
0
100
AcDbBlockBegin
  2
DMBLK3
 70
     0
 10
0.0
 20
0.0
 30
0.0
  3
DMBLK3
  1

  0
HATCH
  5
FE
330
FD
100
AcDbEntity
  8
Default
  6
Continuous
 62
     7
100
AcDbHatch
 10
0.0
 20
0.0
 30
0.0
210
0.0
220
0.0
230
1.0
  2
SOLID
 70
     1
 71
     0
 91
        1
 92
        1
 93
        3
 72
     1
 10
472.5571182624958
 20
191.5164384006864
 11
481.5571178750656
 21
193.0164383361146
 72
     1
 10
481.5571178750656
 20
193.0164383361146
 11
472.5571182624958
 21
194.5164382715429
 72
     1
 10
472.5571182624958
 20
194.5164382715429
 11
472.5571182624958
 21
191.5164384006864
 97
        0
 75
     0
 76
     1
 98
        0
  0
HATCH
  5
FF
330
FD
100
AcDbEntity
  8
Default
  6
Continuous
 62
     7
100
AcDbHatch
 10
0.0
 20
0.0
 30
0.0
210
0.0
220
0.0
230
1.0
  2
SOLID
 70
     1
 71
     0
 91
        1
 92
        1
 93
        3
 72
     1
 10
240.5571174876354
 20
191.5164384006864
 11
240.5571174876354
 21
194.5164382715429
 72
     1
 10
240.5571174876354
 20
194.5164382715429
 11
231.5571178750656
 21
193.0164383361146
 72
     1
 10
231.5571178750656
 20
193.0164383361146
 11
240.5571174876354
 21
191.5164384006864
 97
        0
 75
     0
 76
     1
 98
        0
  0
LINE
  5
100
330
FD
100
AcDbEntity
  8
Default
  6
Continuous
 62
     7
100
AcDbLine
 10
481.5571178751
 20
277.4211080382
 30
0.0
 11
481.5571178751
 21
188.5164385298
 31
0.0
  0
LINE
  5
101
330
FD
100
AcDbEntity
  8
Default
  6
Continuous
 62
     7
100
AcDbLine
 10
231.5571178751
 20
277.4211080382
 30
0.0
 11
231.5571178751
 21
188.5164385298
 31
0.0
  0
LINE
  5
102
330
FD
100
AcDbEntity
  8
Default
  6
Continuous
 62
     7
100
AcDbLine
 10
481.5571178751
 20
193.0164383361
 30
0.0
 11
231.5571178751
 21
193.0164383361
 31
0.0
  0
TEXT
  5
103
330
FD
100
AcDbEntity
  8
Default
  6
Continuous
 62
     7
100
AcDbText
 10
348.5798451478
 20
195.2664383361
 30
0.0
 40
9.0
  1
250
  7
SEACAD_Solid_Edge_ISO
 11
348.5798451478
 21
204.2664383361
 31
0.0
100
AcDbText
 73
     3
  0
ENDBLK
  5
105
330
FD
100
AcDbEntity
  8
0
100
AcDbBlockEnd
  0
BLOCK
  5
10E
330
107
100
AcDbEntity
  8
0
100
AcDbBlockBegin
  2
DMBLK4
 70
     0
 10
0.0
 20
0.0
 30
0.0
  3
DMBLK4
  1

  0
HATCH
  5
108
330
107
100
AcDbEntity
  8
Default
  6
Continuous
 62
     7
100
AcDbHatch
 10
0.0
 20
0.0
 30
0.0
210
0.0
220
0.0
230
1.0
  2
SOLID
 70
     1
 71
     0
 91
        1
 92
        1
 93
        3
 72
     1
 10
134.0532532340747
 20
334.021108425598
 11
137.0532531049313
 21
334.021108425598
 72
     1
 10
137.0532531049313
 20
334.021108425598
 11
135.553253169503
 21
343.0211080381678
 72
     1
 10
135.553253169503
 20
343.0211080381678
 11
134.0532532340747
 21
334.021108425598
 97
        0
 75
     0
 76
     1
 98
        0
  0
HATCH
  5
109
330
107
100
AcDbEntity
  8
Default
  6
Continuous
 62
     7
100
AcDbHatch
 10
0.0
 20
0.0
 30
0.0
210
0.0
220
0.0
230
1.0
  2
SOLID
 70
     1
 71
     0
 91
        1
 92
        1
 93
        3
 72
     1
 10
134.0532532340747
 20
244.821110940914
 11
135.553253169503
 21
235.8211113283442
 72
     1
 10
135.553253169503
 20
235.8211113283442
 11
137.0532531049313
 21
244.821110940914
 72
     1
 10
137.0532531049313
 20
244.821110940914
 11
134.0532532340747
 21
244.821110940914
 97
        0
 75
     0
 76
     1
 98
        0
  0
LINE
  5
10A
330
107
100
AcDbEntity
  8
Default
  6
Continuous
 62
     7
100
AcDbLine
 10
156.5571178751
 20
343.0211080382
 30
0.0
 11
131.0532533632
 21
343.0211080382
 31
0.0
  0
LINE
  5
10B
330
107
100
AcDbEntity
  8
Default
  6
Continuous
 62
     7
100
AcDbLine
 10
156.5571178751
 20
235.8211080382
 30
0.0
 11
131.0532533632
 21
235.8211080382
 31
0.0
  0
LINE
  5
10C
330
107
100
AcDbEntity
  8
Default
  6
Continuous
 62
     7
100
AcDbLine
 10
135.5532531695
 20
343.0211080382
 30
0.0
 11
135.5532531695
 21
235.8211113283
 31
0.0
  0
TEXT
  5
10D
330
107
100
AcDbEntity
  8
Default
  6
Continuous
 62
     7
100
AcDbText
 10
133.3032531695
 20
278.9074733196
 30
0.0
 40
9.0
  1
108
 50
90.0
  7
SEACAD_Solid_Edge_ISO
 11
124.3032531695
 21
278.9074733196
 31
0.0
100
AcDbText
 73
     3
  0
ENDBLK
  5
10F
330
107
100
AcDbEntity
  8
0
100
AcDbBlockEnd
  0
BLOCK
  5
132
330
110
100
AcDbEntity
  8
0
100
AcDbBlockBegin
  2
SE1
 70
     0
 10
0.0
 20
0.0
 30
0.0
  3
SE1
  1

  0
LINE
  5
112
330
110
100
AcDbEntity
  8
visible
  6
Continuous
 62
     7
100
AcDbLine
 10
76.7200427997
 20
335.5211080382
 30
0.0
 11
76.7200427997
 21
350.5211080382
 31
0.0
  0
LINE
  5
113
330
110
100
AcDbEntity
  8
visible
  6
Continuous
 62
     7
100
AcDbLine
 10
76.7200427997
 20
350.5211080382
 30
0.0
 11
61.7200427997
 21
350.5211080382
 31
0.0
  0
LINE
  5
114
330
110
100
AcDbEntity
  8
visible
  6
Continuous
 62
     7
100
AcDbLine
 10
61.7200427997
 20
350.5211080382
 30
0.0
 11
61.7200427997
 21
335.5211080382
 31
0.0
  0
LINE
  5
115
330
110
100
AcDbEntity
  8
visible
  6
Continuous
 62
     7
100
AcDbLine
 10
61.7200427997
 20
335.5211080382
 30
0.0
 11
76.7200427997
 21
335.5211080382
 31
0.0
  0
LINE
  5
116
330
110
100
AcDbEntity
  8
visible
  6
Continuous
 62
     7
100
AcDbLine
 10
61.7200427997
 20
295.5211080382
 30
0.0
 11
61.7200427997
 21
335.5211080382
 31
0.0
  0
LINE
  5
117
330
110
100
AcDbEntity
  8
visible
  6
Continuous
 62
     7
100
AcDbLine
 10
61.7200427997
 20
295.5211080382
 30
0.0
 11
76.7200427997
 21
295.5211080382
 31
0.0
  0
LINE
  5
118
330
110
100
AcDbEntity
  8
visible
  6
Continuous
 62
     7
100
AcDbLine
 10
76.7200427997
 20
295.5211080382
 30
0.0
 11
76.7200427997
 21
335.5211080382
 31
0.0
  0
LINE
  5
119
330
110
100
AcDbEntity
  8
visible
  6
Continuous
 62
     7
100
AcDbLine
 10
61.7200427997
 20
243.3211080382
 30
0.0
 11
61.7200427997
 21
283.3211080382
 31
0.0
  0
LINE
  5
11A
330
110
100
AcDbEntity
  8
visible
  6
Continuous
 62
     7
100
AcDbLine
 10
76.7200427997
 20
243.3211080382
 30
0.0
 11
76.7200427997
 21
283.3211080382
 31
0.0
  0
LINE
  5
11B
330
110
100
AcDbEntity
  8
visible
  6
Continuous
 62
     7
100
AcDbLine
 10
76.7200427997
 20
283.3211080382
 30
0.0
 11
61.7200427997
 21
283.3211080382
 31
0.0
  0
LINE
  5
11C
330
110
100
AcDbEntity
  8
visible
  6
Continuous
 62
     7
100
AcDbLine
 10
76.7200427997
 20
243.3211080382
 30
0.0
 11
61.7200427997
 21
243.3211080382
 31
0.0
  0
LINE
  5
11D
330
110
100
AcDbEntity
  8
visible
  6
Continuous
 62
     7
100
AcDbLine
 10
76.7200427997
 20
228.3211080382
 30
0.0
 11
76.7200427997
 21
243.3211080382
 31
0.0
  0
LINE
  5
11E
330
110
100
AcDbEntity
  8
visible
  6
Continuous
 62
     7
100
AcDbLine
 10
61.7200427997
 20
228.3211080382
 30
0.0
 11
61.7200427997
 21
243.3211080382
 31
0.0
  0
LINE
  5
11F
330
110
100
AcDbEntity
  8
visible
  6
Continuous
 62
     7
100
AcDbLine
 10
76.7200427997
 20
228.3211080382
 30
0.0
 11
61.7200427997
 21
228.3211080382
 31
0.0
  0
LINE
  5
120
330
110
100
AcDbEntity
  8
visible
  6
Continuous
 62
     7
100
AcDbLine
 10
74.7200427997
 20
284.4211080382
 30
0.0
 11
63.7200427997
 21
284.4211080382
 31
0.0
  0
LINE
  5
121
330
110
100
AcDbEntity
  8
visible
  6
Continuous
 62
     7
100
AcDbLine
 10
74.7200427997
 20
283.4211080382
 30
0.0
 11
63.7200427997
 21
283.4211080382
 31
0.0
  0
LINE
  5
122
330
110
100
AcDbEntity
  8
visible
  6
Continuous
 62
     7
100
AcDbLine
 10
74.7200427997
 20
284.4211080382
 30
0.0
 11
76.7200427997
 21
284.4211080382
 31
0.0
  0
LINE
  5
123
330
110
100
AcDbEntity
  8
visible
  6
Continuous
 62
     7
100
AcDbLine
 10
76.7200427997
 20
284.4211080382
 30
0.0
 11
76.7200427997
 21
283.4211080382
 31
0.0
  0
LINE
  5
124
330
110
100
AcDbEntity
  8
visible
  6
Continuous
 62
     7
100
AcDbLine
 10
76.7200427997
 20
283.4211080382
 30
0.0
 11
74.7200427997
 21
283.4211080382
 31
0.0
  0
LINE
  5
125
330
110
100
AcDbEntity
  8
visible
  6
Continuous
 62
     7
100
AcDbLine
 10
61.7200427997
 20
283.4211080382
 30
0.0
 11
61.7200427997
 21
284.4211080382
 31
0.0
  0
LINE
  5
126
330
110
100
AcDbEntity
  8
visible
  6
Continuous
 62
     7
100
AcDbLine
 10
61.7200427997
 20
284.4211080382
 30
0.0
 11
63.7200427997
 21
284.4211080382
 31
0.0
  0
LINE
  5
127
330
110
100
AcDbEntity
  8
visible
  6
Continuous
 62
     7
100
AcDbLine
 10
63.7200427997
 20
283.4211080382
 30
0.0
 11
61.7200427997
 21
283.4211080382
 31
0.0
  0
LINE
  5
128
330
110
100
AcDbEntity
  8
visible
  6
Continuous
 62
     7
100
AcDbLine
 10
74.7200427997
 20
295.4211080382
 30
0.0
 11
63.7200427997
 21
295.4211080382
 31
0.0
  0
LINE
  5
129
330
110
100
AcDbEntity
  8
visible
  6
Continuous
 62
     7
100
AcDbLine
 10
74.7200427997
 20
294.4211080382
 30
0.0
 11
63.7200427997
 21
294.4211080382
 31
0.0
  0
LINE
  5
12A
330
110
100
AcDbEntity
  8
visible
  6
Continuous
 62
     7
100
AcDbLine
 10
74.7200427997
 20
295.4211080382
 30
0.0
 11
76.7200427997
 21
295.4211080382
 31
0.0
  0
LINE
  5
12B
330
110
100
AcDbEntity
  8
visible
  6
Continuous
 62
     7
100
AcDbLine
 10
76.7200427997
 20
295.4211080382
 30
0.0
 11
76.7200427997
 21
294.4211080382
 31
0.0
  0
LINE
  5
12C
330
110
100
AcDbEntity
  8
visible
  6
Continuous
 62
     7
100
AcDbLine
 10
76.7200427997
 20
294.4211080382
 30
0.0
 11
74.7200427997
 21
294.4211080382
 31
0.0
  0
LINE
  5
12D
330
110
100
AcDbEntity
  8
visible
  6
Continuous
 62
     7
100
AcDbLine
 10
61.7200427997
 20
294.4211080382
 30
0.0
 11
61.7200427997
 21
295.4211080382
 31
0.0
  0
LINE
  5
12E
330
110
100
AcDbEntity
  8
visible
  6
Continuous
 62
     7
100
AcDbLine
 10
61.7200427997
 20
295.4211080382
 30
0.0
 11
63.7200427997
 21
295.4211080382
 31
0.0
  0
LINE
  5
12F
330
110
100
AcDbEntity
  8
visible
  6
Continuous
 62
     7
100
AcDbLine
 10
63.7200427997
 20
294.4211080382
 30
0.0
 11
61.7200427997
 21
294.4211080382
 31
0.0
  0
LINE
  5
130
330
110
100
AcDbEntity
  8
visible
  6
Continuous
 62
     7
100
AcDbLine
 10
63.2200427997
 20
294.4211080382
 30
0.0
 11
63.2200427997
 21
284.4211080382
 31
0.0
  0
LINE
  5
131
330
110
100
AcDbEntity
  8
visible
  6
Continuous
 62
     7
100
AcDbLine
 10
75.2200427997
 20
284.4211080382
 30
0.0
 11
75.2200427997
 21
294.4211080382
 31
0.0
  0
ENDBLK
  5
133
330
110
100
AcDbEntity
  8
0
100
AcDbBlockEnd
  0
BLOCK
  5
13C
330
135
100
AcDbEntity
  8
0
100
AcDbBlockBegin
  2
DMBLK5
 70
     0
 10
0.0
 20
0.0
 30
0.0
  3
DMBLK5
  1

  0
HATCH
  5
136
330
135
100
AcDbEntity
  8
Default
  6
Continuous
 62
     7
100
AcDbHatch
 10
0.0
 20
0.0
 30
0.0
210
0.0
220
0.0
230
1.0
  2
SOLID
 70
     1
 71
     0
 91
        1
 92
        1
 93
        3
 72
     1
 10
33.00230825920853
 20
237.3211076507375
 11
34.50230819463683
 21
228.3211080381677
 72
     1
 10
34.50230819463683
 20
228.3211080381677
 11
36.00230813006512
 21
237.3211076507375
 72
     1
 10
36.00230813006512
 20
237.3211076507375
 11
33.00230825920853
 21
237.3211076507375
 97
        0
 75
     0
 76
     1
 98
        0
  0
HATCH
  5
137
330
135
100
AcDbEntity
  8
Default
  6
Continuous
 62
     7
100
AcDbHatch
 10
0.0
 20
0.0
 30
0.0
210
0.0
220
0.0
230
1.0
  2
SOLID
 70
     1
 71
     0
 91
        1
 92
        1
 93
        3
 72
     1
 10
33.00230825920853
 20
341.521105731468
 11
36.00230813006512
 21
341.521105731468
 72
     1
 10
36.00230813006512
 20
341.521105731468
 11
34.50230819463683
 21
350.5211053440378
 72
     1
 10
34.50230819463683
 20
350.5211053440378
 11
33.00230825920853
 21
341.521105731468
 97
        0
 75
     0
 76
     1
 98
        0
  0
LINE
  5
138
330
135
100
AcDbEntity
  8
Default
  6
Continuous
 62
     7
100
AcDbLine
 10
61.7200427997
 20
228.3211080382
 30
0.0
 11
30.0023083884
 21
228.3211080382
 31
0.0
  0
LINE
  5
139
330
135
100
AcDbEntity
  8
Default
  6
Continuous
 62
     7
100
AcDbLine
 10
61.7200427997
 20
350.5211080382
 30
0.0
 11
30.0023083884
 21
350.5211080382
 31
0.0
  0
LINE
  5
13A
330
135
100
AcDbEntity
  8
Default
  6
Continuous
 62
     7
100
AcDbLine
 10
34.5023081946
 20
228.3211080382
 30
0.0
 11
34.5023081946
 21
350.521105344
 31
0.0
  0
TEXT
  5
13B
330
135
100
AcDbEntity
  8
Default
  6
Continuous
 62
     7
100
AcDbText
 10
32.2523081946
 20
279.3165612366
 30
0.0
 40
9.0
  1
123
 50
90.0
  7
SEACAD_Solid_Edge_ISO
 11
23.2523081946
 21
279.3165612366
 31
0.0
100
AcDbText
 73
     3
  0
ENDBLK
  5
13D
330
135
100
AcDbEntity
  8
0
100
AcDbBlockEnd
  0
BLOCK
  5
146
330
13F
100
AcDbEntity
  8
0
100
AcDbBlockBegin
  2
DMBLK6
 70
     0
 10
0.0
 20
0.0
 30
0.0
  3
DMBLK6
  1

  0
HATCH
  5
140
330
13F
100
AcDbEntity
  8
Default
  6
Continuous
 62
     7
100
AcDbHatch
 10
0.0
 20
0.0
 30
0.0
210
0.0
220
0.0
230
1.0
  2
SOLID
 70
     1
 71
     0
 91
        1
 92
        1
 93
        3
 72
     1
 10
85.72004241228056
 20
360.5482639391627
 11
76.72004279971075
 21
359.0482640037344
 72
     1
 10
76.72004279971075
 20
359.0482640037344
 11
85.72004241228056
 21
357.5482640683061
 72
     1
 10
85.72004241228056
 20
357.5482640683061
 11
85.72004241228056
 21
360.5482639391627
 97
        0
 75
     0
 76
     1
 98
        0
  0
HATCH
  5
141
330
13F
100
AcDbEntity
  8
Default
  6
Continuous
 62
     7
100
AcDbHatch
 10
0.0
 20
0.0
 30
0.0
210
0.0
220
0.0
230
1.0
  2
SOLID
 70
     1
 71
     0
 91
        1
 92
        1
 93
        3
 72
     1
 10
52.72004318714094
 20
360.5482639391627
 11
52.72004318714094
 21
357.5482640683061
 72
     1
 10
52.72004318714094
 20
357.5482640683061
 11
61.72004279971075
 21
359.0482640037344
 72
     1
 10
61.72004279971075
 20
359.0482640037344
 11
52.72004318714094
 21
360.5482639391627
 97
        0
 75
     0
 76
     1
 98
        0
  0
LINE
  5
142
330
13F
100
AcDbEntity
  8
Default
  6
Continuous
 62
     7
100
AcDbLine
 10
76.7200427997
 20
350.5211080382
 30
0.0
 11
76.7200427997
 21
363.54826381
 31
0.0
  0
LINE
  5
143
330
13F
100
AcDbEntity
  8
Default
  6
Continuous
 62
     7
100
AcDbLine
 10
61.7200427997
 20
350.5211080382
 30
0.0
 11
61.7200427997
 21
363.54826381
 31
0.0
  0
LINE
  5
144
330
13F
100
AcDbEntity
  8
Default
  6
Continuous
 62
     7
100
AcDbLine
 10
94.7200420249
 20
359.0482640037
 30
0.0
 11
43.7200429785
 21
359.0482640037
 31
0.0
  0
TEXT
  5
145
330
13F
100
AcDbEntity
  8
Default
  6
Continuous
 62
     7
100
AcDbText
 10
64.8223156946
 20
361.2982640037
 30
0.0
 40
9.0
  1
15
  7
SEACAD_Solid_Edge_ISO
 11
64.8223156946
 21
370.2982640037
 31
0.0
100
AcDbText
 73
     3
  0
ENDBLK
  5
147
330
13F
100
AcDbEntity
  8
0
100
AcDbBlockEnd
  0
BLOCK
  5
150
330
149
100
AcDbEntity
  8
0
100
AcDbBlockBegin
  2
DMBLK7
 70
     0
 10
0.0
 20
0.0
 30
0.0
  3
DMBLK7
  1

  0
HATCH
  5
14A
330
149
100
AcDbEntity
  8
Default
  6
Continuous
 62
     7
100
AcDbHatch
 10
0.0
 20
0.0
 30
0.0
210
0.0
220
0.0
230
1.0
  2
SOLID
 70
     1
 71
     0
 91
        1
 92
        1
 93
        3
 72
     1
 10
98.42032320777528
 20
326.521108425598
 11
96.92032327234698
 21
335.5211080381678
 72
     1
 10
96.92032327234698
 20
335.5211080381678
 11
95.42032333691867
 21
326.521108425598
 72
     1
 10
95.42032333691867
 20
326.521108425598
 11
98.42032320777528
 21
326.521108425598
 97
        0
 75
     0
 76
     1
 98
        0
  0
HATCH
  5
14B
330
149
100
AcDbEntity
  8
Default
  6
Continuous
 62
     7
100
AcDbHatch
 10
0.0
 20
0.0
 30
0.0
210
0.0
220
0.0
230
1.0
  2
SOLID
 70
     1
 71
     0
 91
        1
 92
        1
 93
        3
 72
     1
 10
98.42032320777528
 20
359.5211076507376
 11
95.42032333691867
 21
359.5211076507376
 72
     1
 10
95.42032333691867
 20
359.5211076507376
 11
96.92032327234698
 21
350.5211080381678
 72
     1
 10
96.92032327234698
 20
350.5211080381678
 11
98.42032320777528
 21
359.5211076507376
 97
        0
 75
     0
 76
     1
 98
        0
  0
LINE
  5
14C
330
149
100
AcDbEntity
  8
Default
  6
Continuous
 62
     7
100
AcDbLine
 10
76.7200427997
 20
335.5211080382
 30
0.0
 11
101.4203230786
 21
335.5211080382
 31
0.0
  0
LINE
  5
14D
330
149
100
AcDbEntity
  8
Default
  6
Continuous
 62
     7
100
AcDbLine
 10
76.7200427997
 20
350.5211080382
 30
0.0
 11
101.4203230786
 21
350.5211080382
 31
0.0
  0
LINE
  5
14E
330
149
100
AcDbEntity
  8
Default
  6
Continuous
 62
     7
100
AcDbLine
 10
96.9203232723
 20
317.521108813
 30
0.0
 11
96.9203232723
 21
368.5211078594
 31
0.0
  0
TEXT
  5
14F
330
149
100
AcDbEntity
  8
Default
  6
Continuous
 62
     7
100
AcDbText
 10
94.6703232723
 20
338.6233805978
 30
0.0
 40
9.0
  1
15
 50
90.0
  7
SEACAD_Solid_Edge_ISO
 11
85.6703232723
 21
338.6233805978
 31
0.0
100
AcDbText
 73
     3
  0
ENDBLK
  5
151
330
149
100
AcDbEntity
  8
0
100
AcDbBlockEnd
  0
BLOCK
  5
15A
330
153
100
AcDbEntity
  8
0
100
AcDbBlockBegin
  2
DMBLK8
 70
     0
 10
0.0
 20
0.0
 30
0.0
  3
DMBLK8
  1

  0
HATCH
  5
154
330
153
100
AcDbEntity
  8
Default
  6
Continuous
 62
     7
100
AcDbHatch
 10
0.0
 20
0.0
 30
0.0
210
0.0
220
0.0
230
1.0
  2
SOLID
 70
     1
 71
     0
 91
        1
 92
        1
 93
        3
 72
     1
 10
248.0571174876355
 20
362.0202627052274
 11
239.0571178750657
 21
360.520262769799
 72
     1
 10
239.0571178750657
 20
360.520262769799
 11
248.0571174876355
 21
359.0202628343707
 72
     1
 10
248.0571174876355
 20
359.0202628343707
 11
248.0571174876355
 21
362.0202627052274
 97
        0
 75
     0
 76
     1
 98
        0
  0
HATCH
  5
155
330
153
100
AcDbEntity
  8
Default
  6
Continuous
 62
     7
100
AcDbHatch
 10
0.0
 20
0.0
 30
0.0
210
0.0
220
0.0
230
1.0
  2
SOLID
 70
     1
 71
     0
 91
        1
 92
        1
 93
        3
 72
     1
 10
215.0571182624958
 20
362.0202627052274
 11
215.0571182624958
 21
359.0202628343707
 72
     1
 10
215.0571182624958
 20
359.0202628343707
 11
224.0571178750656
 21
360.520262769799
 72
     1
 10
224.0571178750656
 20
360.520262769799
 11
215.0571182624958
 21
362.0202627052274
 97
        0
 75
     0
 76
     1
 98
        0
  0
LINE
  5
156
330
153
100
AcDbEntity
  8
Default
  6
Continuous
 62
     7
100
AcDbLine
 10
239.0571178751
 20
335.5211080382
 30
0.0
 11
239.0571178751
 21
365.0202625761
 31
0.0
  0
LINE
  5
157
330
153
100
AcDbEntity
  8
Default
  6
Continuous
 62
     7
100
AcDbLine
 10
224.0571178751
 20
335.5211080382
 30
0.0
 11
224.0571178751
 21
365.0202625761
 31
0.0
  0
LINE
  5
158
330
153
100
AcDbEntity
  8
Default
  6
Continuous
 62
     7
100
AcDbLine
 10
257.0571171002
 20
360.5202627698
 30
0.0
 11
206.0571180539
 21
360.5202627698
 31
0.0
  0
TEXT
  5
159
330
153
100
AcDbEntity
  8
Default
  6
Continuous
 62
     7
100
AcDbText
 10
227.15939077
 20
362.7702627698
 30
0.0
 40
9.0
  1
15
  7
SEACAD_Solid_Edge_ISO
 11
227.15939077
 21
371.7702627698
 31
0.0
100
AcDbText
 73
     3
  0
ENDBLK
  5
15B
330
153
100
AcDbEntity
  8
0
100
AcDbBlockEnd
  0
BLOCK
  5
1F0
330
15C
100
AcDbEntity
  8
0
100
AcDbBlockBegin
  2
SE2
 70
     0
 10
0.0
 20
0.0
 30
0.0
  3
SE2
  1

  0
LINE
  5
15E
330
15C
100
AcDbEntity
  8
visible
  6
Continuous
 62
     7
100
AcDbLine
 10
221.7557486907
 20
92.4949510945
 30
0.0
 11
221.7557486907
 21
97.39393058
 31
0.0
  0
LINE
  5
15F
330
15C
100
AcDbEntity
  8
visible
  6
Continuous
 62
     7
100
AcDbLine
 10
221.7557486907
 20
97.39393058
 30
0.0
 11
217.5131080036
 21
94.9444408372
 31
0.0
  0
LINE
  5
160
330
15C
100
AcDbEntity
  8
visible
  6
Continuous
 62
     7
100
AcDbLine
 10
217.5131080036
 20
94.9444408372
 30
0.0
 11
217.5131080036
 21
90.0454613517
 31
0.0
  0
LINE
  5
161
330
15C
100
AcDbEntity
  8
visible
  6
Continuous
 62
     7
100
AcDbLine
 10
217.5131080036
 20
90.0454613517
 30
0.0
 11
221.7557486907
 21
92.4949510945
 31
0.0
  0
LINE
  5
162
330
15C
100
AcDbEntity
  8
visible
  6
Continuous
 62
     7
100
AcDbLine
 10
104.3760230138
 20
160.2641673115
 30
0.0
 11
104.3760230138
 21
155.3651878259
 31
0.0
  0
LINE
  5
163
330
15C
100
AcDbEntity
  8
visible
  6
Continuous
 62
     7
100
AcDbLine
 10
108.6186637009
 20
162.7136570542
 30
0.0
 11
104.3760230138
 21
160.2641673115
 31
0.0
  0
LINE
  5
164
330
15C
100
AcDbEntity
  8
visible
  6
Continuous
 62
     7
100
AcDbLine
 10
217.5131080036
 20
90.0454613517
 30
0.0
 11
198.4212249116
 21
101.0681651942
 31
0.0
  0
LINE
  5
165
330
15C
100
AcDbEntity
  8
visible
  6
Continuous
 62
     7
100
AcDbLine
 10
217.5131080036
 20
94.9444408372
 30
0.0
 11
104.3760230138
 21
160.2641673115
 31
0.0
  0
LINE
  5
166
330
15C
100
AcDbEntity
  8
visible
  6
Continuous
 62
     7
100
AcDbLine
 10
221.7557486907
 20
97.39393058
 30
0.0
 11
108.6186637009
 21
162.7136570542
 31
0.0
  0
LINE
  5
167
330
15C
100
AcDbEntity
  8
visible
  6
Continuous
 62
     7
100
AcDbLine
 10
194.1785842245
 20
103.517654937
 30
0.0
 11
127.7105467929
 21
141.8929942406
 31
0.0
  0
LINE
  5
168
330
15C
100
AcDbEntity
  8
visible
  6
Continuous
 62
     7
100
AcDbLine
 10
194.1785842245
 20
90.4537096421
 30
0.0
 11
198.4212249116
 21
88.0042198993
 31
0.0
  0
LINE
  5
169
330
15C
100
AcDbEntity
  8
visible
  6
Continuous
 62
     7
100
AcDbLine
 10
198.4212249116
 20
88.0042198993
 30
0.0
 11
198.4212249116
 21
101.0681651942
 31
0.0
  0
LINE
  5
16A
330
15C
100
AcDbEntity
  8
visible
  6
Continuous
 62
     7
100
AcDbLine
 10
198.4212249116
 20
88.0042198993
 30
0.0
 11
202.6638655987
 21
90.4537096421
 31
0.0
  0
LINE
  5
16B
330
15C
100
AcDbEntity
  8
visible
  6
Continuous
 62
     7
100
AcDbLine
 10
202.6638655987
 20
90.4537096421
 30
0.0
 11
202.6638655987
 21
98.6186754514
 31
0.0
  0
LINE
  5
16C
330
15C
100
AcDbEntity
  8
visible
  6
Continuous
 62
     7
100
AcDbLine
 10
194.1785842245
 20
90.4537096421
 30
0.0
 11
194.1785842245
 21
103.517654937
 31
0.0
  0
LINE
  5
16D
330
15C
100
AcDbEntity
  8
visible
  6
Continuous
 62
     7
100
AcDbLine
 10
123.4679061058
 20
144.3424839834
 30
0.0
 11
104.3760230138
 21
155.3651878259
 31
0.0
  0
LINE
  5
16E
330
15C
100
AcDbEntity
  8
visible
  6
Continuous
 62
     7
100
AcDbLine
 10
127.7105467929
 20
128.8290489457
 30
0.0
 11
127.7105467929
 21
141.8929942406
 31
0.0
  0
LINE
  5
16F
330
15C
100
AcDbEntity
  8
visible
  6
Continuous
 62
     7
100
AcDbLine
 10
123.4679061058
 20
131.2785386885
 30
0.0
 11
123.4679061058
 21
144.3424839834
 31
0.0
  0
LINE
  5
170
330
15C
100
AcDbEntity
  8
visible
  6
Continuous
 62
     7
100
AcDbLine
 10
131.95318748
 20
131.2785386885
 30
0.0
 11
131.95318748
 21
139.4435044978
 31
0.0
  0
LINE
  5
171
330
15C
100
AcDbEntity
  8
visible
  6
Continuous
 62
     7
100
AcDbLine
 10
127.7105467929
 20
128.8290489457
 30
0.0
 11
123.4679061058
 21
131.2785386885
 31
0.0
  0
LINE
  5
172
330
15C
100
AcDbEntity
  8
visible
  6
Continuous
 62
     7
100
AcDbLine
 10
131.95318748
 20
131.2785386885
 30
0.0
 11
127.7105467929
 21
128.8290489457
 31
0.0
  0
ELLIPSE
  5
173
330
15C
100
AcDbEntity
  8
visible
  6
Continuous
 62
     7
100
AcDbEllipse
 10
198.4212249116
 20
86.8284648228
 30
0.0
 11
2.399999999999995
 21
6.874343210937085E-15
 31
0.0
210
0.0
220
0.0
230
1.0
 40
0.5773502692
 41
3.141592653589793
 42
6.283185307179586
  0
ELLIPSE
  5
174
330
15C
100
AcDbEntity
  8
visible
  6
Continuous
 62
     7
100
AcDbEllipse
 10
127.7105467929
 20
127.6532938692
 30
0.0
 11
2.399999999999998
 21
-2.457229872576207E-15
 31
0.0
210
0.0
220
0.0
230
1.0
 40
0.5773502692
 41
3.141592653589793
 42
6.283185307179586
  0
LINE
  5
175
330
15C
100
AcDbEntity
  8
visible
  6
Continuous
 62
     7
100
AcDbLine
 10
198.4212249116
 20
70.9557712896
 30
0.0
 11
198.4212249116
 21
84.0197165844
 31
0.0
  0
LINE
  5
176
330
15C
100
AcDbEntity
  8
visible
  6
Continuous
 62
     7
100
AcDbLine
 10
194.1785842245
 20
73.4052610324
 30
0.0
 11
194.1785842245
 21
86.4692063272
 31
0.0
  0
LINE
  5
177
330
15C
100
AcDbEntity
  8
visible
  6
Continuous
 62
     7
100
AcDbLine
 10
202.6638655987
 20
73.4052610324
 30
0.0
 11
202.6638655987
 21
86.4692063272
 31
0.0
  0
LINE
  5
178
330
15C
100
AcDbEntity
  8
visible
  6
Continuous
 62
     7
100
AcDbLine
 10
202.6638655987
 20
73.4052610324
 30
0.0
 11
198.4212249116
 21
70.9557712896
 31
0.0
  0
LINE
  5
179
330
15C
100
AcDbEntity
  8
visible
  6
Continuous
 62
     7
100
AcDbLine
 10
202.3324947488
 20
86.6605233766
 30
0.0
 11
202.6638655987
 21
86.4692063272
 31
0.0
  0
LINE
  5
17A
330
15C
100
AcDbEntity
  8
visible
  6
Continuous
 62
     7
100
AcDbLine
 10
194.1785842245
 20
86.4692063272
 30
0.0
 11
194.5099550744
 21
86.6605233766
 31
0.0
  0
LINE
  5
17B
330
15C
100
AcDbEntity
  8
visible
  6
Continuous
 62
     7
100
AcDbLine
 10
198.4212249116
 20
84.0197165844
 30
0.0
 11
194.1785842245
 21
86.4692063272
 31
0.0
  0
LINE
  5
17C
330
15C
100
AcDbEntity
  8
visible
  6
Continuous
 62
     7
100
AcDbLine
 10
202.6638655987
 20
86.4692063272
 30
0.0
 11
198.4212249116
 21
84.0197165844
 31
0.0
  0
LINE
  5
17D
330
15C
100
AcDbEntity
  8
visible
  6
Continuous
 62
     7
100
AcDbLine
 10
127.7105467929
 20
124.8445456308
 30
0.0
 11
123.4679061058
 21
127.2940353736
 31
0.0
  0
LINE
  5
17E
330
15C
100
AcDbEntity
  8
visible
  6
Continuous
 62
     7
100
AcDbLine
 10
127.7105467929
 20
111.780600336
 30
0.0
 11
127.7105467929
 21
124.8445456308
 31
0.0
  0
LINE
  5
17F
330
15C
100
AcDbEntity
  8
visible
  6
Continuous
 62
     7
100
AcDbLine
 10
123.4679061058
 20
127.2940353736
 30
0.0
 11
123.7992769557
 21
127.485352423
 31
0.0
  0
LINE
  5
180
330
15C
100
AcDbEntity
  8
visible
  6
Continuous
 62
     7
100
AcDbLine
 10
123.4679061058
 20
114.2300900787
 30
0.0
 11
123.4679061058
 21
127.2940353736
 31
0.0
  0
LINE
  5
181
330
15C
100
AcDbEntity
  8
visible
  6
Continuous
 62
     7
100
AcDbLine
 10
131.6218166301
 20
127.485352423
 30
0.0
 11
131.95318748
 21
127.2940353736
 31
0.0
  0
LINE
  5
182
330
15C
100
AcDbEntity
  8
visible
  6
Continuous
 62
     7
100
AcDbLine
 10
131.95318748
 20
127.2940353736
 30
0.0
 11
127.7105467929
 21
124.8445456308
 31
0.0
  0
LINE
  5
183
330
15C
100
AcDbEntity
  8
visible
  6
Continuous
 62
     7
100
AcDbLine
 10
131.95318748
 20
114.2300900787
 30
0.0
 11
131.95318748
 21
127.2940353736
 31
0.0
  0
LINE
  5
184
330
15C
100
AcDbEntity
  8
visible
  6
Continuous
 62
     7
100
AcDbLine
 10
131.95318748
 20
114.2300900787
 30
0.0
 11
127.7105467929
 21
111.780600336
 31
0.0
  0
LINE
  5
185
330
15C
100
AcDbEntity
  8
visible
  6
Continuous
 62
     7
100
AcDbLine
 10
221.7557486907
 20
62.3825571898
 30
0.0
 11
217.5131080036
 21
59.9330674471
 31
0.0
  0
LINE
  5
186
330
15C
100
AcDbEntity
  8
visible
  6
Continuous
 62
     7
100
AcDbLine
 10
221.7557486907
 20
57.4835777043
 30
0.0
 11
221.7557486907
 21
62.3825571898
 31
0.0
  0
LINE
  5
187
330
15C
100
AcDbEntity
  8
visible
  6
Continuous
 62
     7
100
AcDbLine
 10
217.5131080036
 20
59.9330674471
 30
0.0
 11
198.4212249116
 21
70.9557712896
 31
0.0
  0
LINE
  5
188
330
15C
100
AcDbEntity
  8
visible
  6
Continuous
 62
     7
100
AcDbLine
 10
194.1785842245
 20
73.4052610324
 30
0.0
 11
127.7105467929
 21
111.780600336
 31
0.0
  0
LINE
  5
189
330
15C
100
AcDbEntity
  8
visible
  6
Continuous
 62
     7
100
AcDbLine
 10
123.4679061058
 20
114.2300900787
 30
0.0
 11
104.3760230138
 21
125.2527939213
 31
0.0
  0
LINE
  5
18A
330
15C
100
AcDbEntity
  8
visible
  6
Continuous
 62
     7
100
AcDbLine
 10
217.5131080036
 20
55.0340879615
 30
0.0
 11
217.5131080036
 21
59.9330674471
 31
0.0
  0
LINE
  5
18B
330
15C
100
AcDbEntity
  8
visible
  6
Continuous
 62
     7
100
AcDbLine
 10
104.3760230138
 20
125.2527939213
 30
0.0
 11
108.6186637009
 21
127.7022836641
 31
0.0
  0
LINE
  5
18C
330
15C
100
AcDbEntity
  8
visible
  6
Continuous
 62
     7
100
AcDbLine
 10
104.3760230138
 20
120.3538144357
 30
0.0
 11
104.3760230138
 21
125.2527939213
 31
0.0
  0
LINE
  5
18D
330
15C
100
AcDbEntity
  8
visible
  6
Continuous
 62
     7
100
AcDbLine
 10
108.6186637009
 20
127.7022836641
 30
0.0
 11
123.4679061058
 21
119.1290695643
 31
0.0
  0
LINE
  5
18E
330
15C
100
AcDbEntity
  8
visible
  6
Continuous
 62
     7
100
AcDbLine
 10
131.95318748
 20
114.2300900787
 30
0.0
 11
194.1785842245
 21
78.3042405179
 31
0.0
  0
LINE
  5
18F
330
15C
100
AcDbEntity
  8
visible
  6
Continuous
 62
     7
100
AcDbLine
 10
202.6638655987
 20
73.4052610324
 30
0.0
 11
221.7557486907
 21
62.3825571898
 31
0.0
  0
LINE
  5
190
330
15C
100
AcDbEntity
  8
visible
  6
Continuous
 62
     7
100
AcDbLine
 10
221.7557486907
 20
57.4835777043
 30
0.0
 11
217.5131080036
 21
55.0340879615
 31
0.0
  0
LINE
  5
191
330
15C
100
AcDbEntity
  8
visible
  6
Continuous
 62
     7
100
AcDbLine
 10
217.5131080036
 20
55.0340879615
 30
0.0
 11
104.3760230138
 21
120.3538144357
 31
0.0
  0
ELLIPSE
  5
192
330
15C
100
AcDbEntity
  8
visible
  6
Continuous
 62
     7
100
AcDbEllipse
 10
124.5992769557
 20
131.2458788253
 30
0.0
 11
0.8000000000000052
 21
3.951680914968316E-15
 31
0.0
210
0.0
220
0.0
230
1.0
 40
0.5773502692
 41
3.609430387695703
 42
3.926990816987247
  0
LINE
  5
193
330
15C
100
AcDbEntity
  8
0
  6
Continuous
 62
     7
100
AcDbLine
 10
124.0335915308
 20
130.9192801929
 30
0.0
 11
124.0335915308
 21
130.5926815605
 31
0.0
  0
ELLIPSE
  5
194
330
15C
100
AcDbEntity
  8
visible
  6
Continuous
 62
     7
100
AcDbEllipse
 10
124.5992769557
 20
130.9192801929
 30
0.0
 11
0.8000000000000049
 21
-2.271499480805587E-15
 31
0.0
210
0.0
220
0.0
230
1.0
 40
0.5773502692
 41
3.141592653589737
 42
3.926990816987251
  0
LINE
  5
195
330
15C
100
AcDbEntity
  8
visible
  6
Continuous
 62
     7
100
AcDbLine
 10
200.8212249116
 20
87.8923139195
 30
0.0
 11
202.0981801737
 21
87.1550634552
 31
0.0
  0
LINE
  5
196
330
15C
100
AcDbEntity
  8
visible
  6
Continuous
 62
     7
100
AcDbLine
 10
202.0981801737
 20
86.5018661904
 30
0.0
 11
198.9869103365
 21
84.7055737124
 31
0.0
  0
LINE
  5
197
330
15C
100
AcDbEntity
  8
visible
  6
Continuous
 62
     7
100
AcDbLine
 10
202.0981801737
 20
86.1752675581
 30
0.0
 11
198.9869103365
 21
84.37897508
 31
0.0
  0
LINE
  5
198
330
15C
100
AcDbEntity
  8
0
  6
Continuous
 62
     7
100
AcDbLine
 10
202.0981801737
 20
86.1752675581
 30
0.0
 11
202.0981801737
 21
86.5018661904
 31
0.0
  0
ELLIPSE
  5
199
330
15C
100
AcDbEntity
  8
visible
  6
Continuous
 62
     7
100
AcDbEllipse
 10
201.5324947488
 20
86.8284648228
 30
0.0
 11
-0.800000000000015
 21
1.242545833406287E-14
 31
0.0
210
0.0
220
0.0
230
1.0
 40
0.5773502692
 41
2.356194490192333
 42
3.926990816987221
  0
ELLIPSE
  5
19A
330
15C
100
AcDbEntity
  8
visible
  6
Continuous
 62
     7
100
AcDbEllipse
 10
201.5324947488
 20
86.5018661904
 30
0.0
 11
-0.7999999999999874
 21
-1.702247554540141E-14
 31
0.0
210
0.0
220
0.0
230
1.0
 40
0.5773502692
 41
2.356194490192347
 42
3.141592653589793
  0
LINE
  5
19B
330
15C
100
AcDbEntity
  8
visible
  6
Continuous
 62
     7
100
AcDbLine
 10
197.8555394866
 20
84.7055737124
 30
0.0
 11
194.7442696494
 21
86.5018661904
 31
0.0
  0
LINE
  5
19C
330
15C
100
AcDbEntity
  8
visible
  6
Continuous
 62
     7
100
AcDbLine
 10
197.8555394866
 20
84.37897508
 30
0.0
 11
194.7442696494
 21
86.1752675581
 31
0.0
  0
LINE
  5
19D
330
15C
100
AcDbEntity
  8
0
  6
Continuous
 62
     7
100
AcDbLine
 10
197.8555394866
 20
84.37897508
 30
0.0
 11
197.8555394866
 21
84.7055737124
 31
0.0
  0
ELLIPSE
  5
19E
330
15C
100
AcDbEntity
  8
visible
  6
Continuous
 62
     7
100
AcDbEllipse
 10
198.4212249116
 20
85.0321723448
 30
0.0
 11
-0.7999999999999974
 21
4.489098431468976E-15
 31
0.0
210
0.0
220
0.0
230
1.0
 40
0.5773502692
 41
0.78539816339745
 42
2.356194490192349
  0
LINE
  5
19F
330
15C
100
AcDbEntity
  8
0
  6
Continuous
 62
     7
100
AcDbLine
 10
198.9869103365
 20
84.7055737124
 30
0.0
 11
198.9869103365
 21
84.37897508
 31
0.0
  0
ELLIPSE
  5
1A0
330
15C
100
AcDbEntity
  8
visible
  6
Continuous
 62
     7
100
AcDbEllipse
 10
198.4212249116
 20
84.7055737124
 30
0.0
 11
0.8000000000000032
 21
1.249101190179099E-14
 31
0.0
210
0.0
220
0.0
230
1.0
 40
0.5773502692
 41
3.926990816987189
 42
5.497787143782123
  0
LINE
  5
1A1
330
15C
100
AcDbEntity
  8
visible
  6
Continuous
 62
     7
100
AcDbLine
 10
194.7442696494
 20
87.1550634552
 30
0.0
 11
196.0212249116
 21
87.8923139195
 31
0.0
  0
ELLIPSE
  5
1A2
330
15C
100
AcDbEntity
  8
visible
  6
Continuous
 62
     7
100
AcDbEllipse
 10
195.3099550744
 20
86.8284648228
 30
0.0
 11
0.7999999999999835
 21
1.929980154499996E-14
 31
0.0
210
0.0
220
0.0
230
1.0
 40
0.5773502692
 41
2.35619449019235
 42
3.926990816987209
  0
LINE
  5
1A3
330
15C
100
AcDbEntity
  8
0
  6
Continuous
 62
     7
100
AcDbLine
 10
194.7442696494
 20
86.5018661904
 30
0.0
 11
194.7442696494
 21
86.1752675581
 31
0.0
  0
ELLIPSE
  5
1A4
330
15C
100
AcDbEntity
  8
visible
  6
Continuous
 62
     7
100
AcDbEllipse
 10
195.3099550744
 20
86.5018661904
 30
0.0
 11
0.8000000000000129
 21
-9.020562075079397E-15
 31
0.0
210
0.0
220
0.0
230
1.0
 40
0.5773502692
 41
3.141592653589813
 42
3.926990816987216
  0
ELLIPSE
  5
1A5
330
15C
100
AcDbEntity
  8
visible
  6
Continuous
 62
     7
100
AcDbEllipse
 10
195.3099550744
 20
90.4210497789
 30
0.0
 11
0.8000000000000167
 21
2.299511480427243E-15
 31
0.0
210
0.0
220
0.0
230
1.0
 40
0.5773502692
 41
3.609430387695696
 42
3.926990816987212
  0
LINE
  5
1A6
330
15C
100
AcDbEntity
  8
0
  6
Continuous
 62
     7
100
AcDbLine
 10
194.7442696494
 20
90.0944511465
 30
0.0
 11
194.7442696494
 21
89.7678525142
 31
0.0
  0
ELLIPSE
  5
1A7
330
15C
100
AcDbEntity
  8
visible
  6
Continuous
 62
     7
100
AcDbEllipse
 10
195.3099550744
 20
90.0944511465
 30
0.0
 11
0.7999999999999933
 21
-6.787607037138244E-15
 31
0.0
210
0.0
220
0.0
230
1.0
 40
0.5773502692
 41
3.141592653589777
 42
3.926990816987189
  0
LINE
  5
1A8
330
15C
100
AcDbEntity
  8
visible
  6
Continuous
 62
     7
100
AcDbLine
 10
202.0981801737
 20
90.0944511465
 30
0.0
 11
198.9869103365
 21
88.2981586685
 31
0.0
  0
LINE
  5
1A9
330
15C
100
AcDbEntity
  8
visible
  6
Continuous
 62
     7
100
AcDbLine
 10
202.0981801737
 20
89.7678525142
 30
0.0
 11
198.9869103365
 21
87.9715600361
 31
0.0
  0
LINE
  5
1AA
330
15C
100
AcDbEntity
  8
0
  6
Continuous
 62
     7
100
AcDbLine
 10
202.0981801737
 20
89.7678525142
 30
0.0
 11
202.0981801737
 21
90.0944511465
 31
0.0
  0
ELLIPSE
  5
1AB
330
15C
100
AcDbEntity
  8
visible
  6
Continuous
 62
     7
100
AcDbEllipse
 10
201.5324947488
 20
90.4210497789
 30
0.0
 11
-0.7999999999999835
 21
-5.702401989894766E-15
 31
0.0
210
0.0
220
0.0
230
1.0
 40
0.5773502692
 41
2.356194490192359
 42
2.673754919483968
  0
ELLIPSE
  5
1AC
330
15C
100
AcDbEntity
  8
visible
  6
Continuous
 62
     7
100
AcDbEllipse
 10
201.5324947488
 20
90.0944511465
 30
0.0
 11
-0.7999999999999974
 21
-4.336808689942018E-17
 31
0.0
210
0.0
220
0.0
230
1.0
 40
0.5773502692
 41
2.356194490192396
 42
3.141592653589793
  0
LINE
  5
1AD
330
15C
100
AcDbEntity
  8
visible
  6
Continuous
 62
     7
100
AcDbLine
 10
197.8555394866
 20
88.2981586685
 30
0.0
 11
194.7442696494
 21
90.0944511465
 31
0.0
  0
LINE
  5
1AE
330
15C
100
AcDbEntity
  8
visible
  6
Continuous
 62
     7
100
AcDbLine
 10
197.8555394866
 20
87.9715600361
 30
0.0
 11
194.7442696494
 21
89.7678525142
 31
0.0
  0
LINE
  5
1AF
330
15C
100
AcDbEntity
  8
0
  6
Continuous
 62
     7
100
AcDbLine
 10
197.8555394866
 20
87.9715600361
 30
0.0
 11
197.8555394866
 21
88.2981586685
 31
0.0
  0
ELLIPSE
  5
1B0
330
15C
100
AcDbEntity
  8
visible
  6
Continuous
 62
     7
100
AcDbEllipse
 10
198.4212249116
 20
88.6247573009
 30
0.0
 11
-0.7999999999999835
 21
-1.023486850826316E-14
 31
0.0
210
0.0
220
0.0
230
1.0
 40
0.5773502692
 41
0.7853981633974723
 42
1.102958592689016
  0
ELLIPSE
  5
1B1
330
15C
100
AcDbEntity
  8
visible
  6
Continuous
 62
     7
100
AcDbEllipse
 10
198.4212249116
 20
88.6247573009
 30
0.0
 11
-0.7999999999999835
 21
-1.023486850826316E-14
 31
0.0
210
0.0
220
0.0
230
1.0
 40
0.5773502692
 41
2.038634060900843
 42
2.356194490192356
  0
LINE
  5
1B2
330
15C
100
AcDbEntity
  8
0
  6
Continuous
 62
     7
100
AcDbLine
 10
198.9869103365
 20
88.2981586685
 30
0.0
 11
198.9869103365
 21
87.9715600361
 31
0.0
  0
ELLIPSE
  5
1B3
330
15C
100
AcDbEntity
  8
visible
  6
Continuous
 62
     7
100
AcDbEllipse
 10
198.4212249116
 20
88.2981586685
 30
0.0
 11
0.7999999999999952
 21
-5.660036777753321E-15
 31
0.0
210
0.0
220
0.0
230
1.0
 40
0.5773502692
 41
3.926990816987242
 42
5.497787143782146
  0
LINE
  5
1B4
330
15C
100
AcDbEntity
  8
visible
  6
Continuous
 62
     7
100
AcDbLine
 10
131.3875020551
 20
127.3266952368
 30
0.0
 11
128.2762322179
 21
125.5304027588
 31
0.0
  0
LINE
  5
1B5
330
15C
100
AcDbEntity
  8
visible
  6
Continuous
 62
     7
100
AcDbLine
 10
131.3875020551
 20
127.0000966045
 30
0.0
 11
128.2762322179
 21
125.2038041264
 31
0.0
  0
LINE
  5
1B6
330
15C
100
AcDbEntity
  8
0
  6
Continuous
 62
     7
100
AcDbLine
 10
131.3875020551
 20
127.0000966045
 30
0.0
 11
131.3875020551
 21
127.3266952368
 31
0.0
  0
ELLIPSE
  5
1B7
330
15C
100
AcDbEntity
  8
visible
  6
Continuous
 62
     7
100
AcDbEllipse
 10
130.8218166301
 20
127.6532938692
 30
0.0
 11
-0.8000000000000012
 21
2.517237070097151E-15
 31
0.0
210
0.0
220
0.0
230
1.0
 40
0.5773502692
 41
2.356194490192394
 42
3.926990816987197
  0
ELLIPSE
  5
1B8
330
15C
100
AcDbEntity
  8
visible
  6
Continuous
 62
     7
100
AcDbEllipse
 10
130.8218166301
 20
127.3266952368
 30
0.0
 11
-0.7999999999999974
 21
3.355981801876877E-15
 31
0.0
210
0.0
220
0.0
230
1.0
 40
0.5773502692
 41
2.356194490192349
 42
3.1415926535898
  0
LINE
  5
1B9
330
15C
100
AcDbEntity
  8
visible
  6
Continuous
 62
     7
100
AcDbLine
 10
131.3875020551
 20
130.9192801929
 30
0.0
 11
128.2762322179
 21
129.1229877149
 31
0.0
  0
LINE
  5
1BA
330
15C
100
AcDbEntity
  8
visible
  6
Continuous
 62
     7
100
AcDbLine
 10
131.3875020551
 20
130.5926815605
 30
0.0
 11
128.2762322179
 21
128.7963890825
 31
0.0
  0
LINE
  5
1BB
330
15C
100
AcDbEntity
  8
0
  6
Continuous
 62
     7
100
AcDbLine
 10
131.3875020551
 20
130.5926815605
 30
0.0
 11
131.3875020551
 21
130.9192801929
 31
0.0
  0
ELLIPSE
  5
1BC
330
15C
100
AcDbEntity
  8
visible
  6
Continuous
 62
     7
100
AcDbEllipse
 10
130.8218166301
 20
131.2458788253
 30
0.0
 11
-0.8000000000000032
 21
3.478850596522658E-15
 31
0.0
210
0.0
220
0.0
230
1.0
 40
0.5773502692
 41
2.356194490192341
 42
2.673754919483927
  0
ELLIPSE
  5
1BD
330
15C
100
AcDbEntity
  8
visible
  6
Continuous
 62
     7
100
AcDbEllipse
 10
130.8218166301
 20
130.9192801929
 30
0.0
 11
-0.7999999999999952
 21
-2.434601814161108E-15
 31
0.0
210
0.0
220
0.0
230
1.0
 40
0.5773502692
 41
2.356194490192347
 42
3.141592653589788
  0
LINE
  5
1BE
330
15C
100
AcDbEntity
  8
visible
  6
Continuous
 62
     7
100
AcDbLine
 10
130.1105467929
 20
128.7171429659
 30
0.0
 11
131.3875020551
 21
127.9798925016
 31
0.0
  0
LINE
  5
1BF
330
15C
100
AcDbEntity
  8
visible
  6
Continuous
 62
     7
100
AcDbLine
 10
124.0335915308
 20
127.9798925016
 30
0.0
 11
125.3105467929
 21
128.7171429659
 31
0.0
  0
ELLIPSE
  5
1C0
330
15C
100
AcDbEntity
  8
visible
  6
Continuous
 62
     7
100
AcDbEllipse
 10
124.5992769557
 20
127.6532938692
 30
0.0
 11
0.7999999999999914
 21
-1.705221314595322E-15
 31
0.0
210
0.0
220
0.0
230
1.0
 40
0.5773502692
 41
2.35619449019233
 42
3.926990816987259
  0
LINE
  5
1C1
330
15C
100
AcDbEntity
  8
0
  6
Continuous
 62
     7
100
AcDbLine
 10
124.0335915308
 20
127.3266952368
 30
0.0
 11
124.0335915308
 21
127.0000966045
 31
0.0
  0
ELLIPSE
  5
1C2
330
15C
100
AcDbEntity
  8
visible
  6
Continuous
 62
     7
100
AcDbEllipse
 10
124.5992769557
 20
127.3266952368
 30
0.0
 11
0.8000000000000069
 21
-4.472459320847453E-15
 31
0.0
210
0.0
220
0.0
230
1.0
 40
0.5773502692
 41
3.141592653589803
 42
3.92699081698723
  0
LINE
  5
1C3
330
15C
100
AcDbEntity
  8
visible
  6
Continuous
 62
     7
100
AcDbLine
 10
127.144861368
 20
125.5304027588
 30
0.0
 11
124.0335915308
 21
127.3266952368
 31
0.0
  0
LINE
  5
1C4
330
15C
100
AcDbEntity
  8
visible
  6
Continuous
 62
     7
100
AcDbLine
 10
127.144861368
 20
125.2038041264
 30
0.0
 11
124.0335915308
 21
127.0000966045
 31
0.0
  0
LINE
  5
1C5
330
15C
100
AcDbEntity
  8
0
  6
Continuous
 62
     7
100
AcDbLine
 10
127.144861368
 20
125.2038041264
 30
0.0
 11
127.144861368
 21
125.5304027588
 31
0.0
  0
ELLIPSE
  5
1C6
330
15C
100
AcDbEntity
  8
visible
  6
Continuous
 62
     7
100
AcDbEllipse
 10
127.7105467929
 20
125.8570013912
 30
0.0
 11
-0.7999999999999974
 21
-8.541742808840161E-15
 31
0.0
210
0.0
220
0.0
230
1.0
 40
0.5773502692
 41
0.785398163397466
 42
2.35619449019234
  0
LINE
  5
1C7
330
15C
100
AcDbEntity
  8
0
  6
Continuous
 62
     7
100
AcDbLine
 10
128.2762322179
 20
125.5304027588
 30
0.0
 11
128.2762322179
 21
125.2038041264
 31
0.0
  0
ELLIPSE
  5
1C8
330
15C
100
AcDbEntity
  8
visible
  6
Continuous
 62
     7
100
AcDbEllipse
 10
127.7105467929
 20
125.5304027588
 30
0.0
 11
0.7999999999999992
 21
-2.794969857288001E-15
 31
0.0
210
0.0
220
0.0
230
1.0
 40
0.5773502692
 41
3.926990816987219
 42
5.497787143782139
  0
LINE
  5
1C9
330
15C
100
AcDbEntity
  8
visible
  6
Continuous
 62
     7
100
AcDbLine
 10
127.144861368
 20
129.1229877149
 30
0.0
 11
124.0335915308
 21
130.9192801929
 31
0.0
  0
LINE
  5
1CA
330
15C
100
AcDbEntity
  8
visible
  6
Continuous
 62
     7
100
AcDbLine
 10
127.144861368
 20
128.7963890825
 30
0.0
 11
124.0335915308
 21
130.5926815605
 31
0.0
  0
LINE
  5
1CB
330
15C
100
AcDbEntity
  8
0
  6
Continuous
 62
     7
100
AcDbLine
 10
127.144861368
 20
128.7963890825
 30
0.0
 11
127.144861368
 21
129.1229877149
 31
0.0
  0
ELLIPSE
  5
1CC
330
15C
100
AcDbEntity
  8
visible
  6
Continuous
 62
     7
100
AcDbEllipse
 10
127.7105467929
 20
129.4495863472
 30
0.0
 11
-0.7999999999999992
 21
-6.553242336846815E-15
 31
0.0
210
0.0
220
0.0
230
1.0
 40
0.5773502692
 41
0.785398163397419
 42
1.102958592688929
  0
ELLIPSE
  5
1CD
330
15C
100
AcDbEntity
  8
visible
  6
Continuous
 62
     7
100
AcDbEllipse
 10
127.7105467929
 20
129.4495863472
 30
0.0
 11
-0.7999999999999992
 21
-6.553242336846815E-15
 31
0.0
210
0.0
220
0.0
230
1.0
 40
0.5773502692
 41
2.038634060900716
 42
2.356194490192339
  0
LINE
  5
1CE
330
15C
100
AcDbEntity
  8
0
  6
Continuous
 62
     7
100
AcDbLine
 10
128.2762322179
 20
129.1229877149
 30
0.0
 11
128.2762322179
 21
128.7963890825
 31
0.0
  0
ELLIPSE
  5
1CF
330
15C
100
AcDbEntity
  8
visible
  6
Continuous
 62
     7
100
AcDbEllipse
 10
127.7105467929
 20
129.1229877149
 30
0.0
 11
0.8000000000000012
 21
-4.194726533656602E-15
 31
0.0
210
0.0
220
0.0
230
1.0
 40
0.5773502692
 41
3.926990816987223
 42
5.497787143782137
  0
ELLIPSE
  5
1D0
330
15C
100
AcDbEntity
  8
visible
  6
Continuous
 62
     7
100
AcDbEllipse
 10
125.5892264494
 20
132.9931815085
 30
0.0
 11
0.4916999999999985
 21
-0.8516493820816174
 31
0.0
210
0.0
220
0.0
230
1.0
 40
0.5773502692
 41
0.0
 42
6.283185307179586
  0
ELLIPSE
  5
1D1
330
15C
100
AcDbEntity
  8
visible
  6
Continuous
 62
     7
100
AcDbEllipse
 10
196.299904568
 20
92.1683524621
 30
0.0
 11
0.4916999999999985
 21
-0.851649382081619
 31
0.0
210
0.0
220
0.0
230
1.0
 40
0.5773502692
 41
0.0
 42
6.283185307179586
  0
LINE
  5
1D2
330
15C
100
AcDbEntity
  8
visible
  6
Continuous
 62
     7
100
AcDbLine
 10
125.3105467929
 20
129.8554310962
 30
0.0
 11
125.3105467929
 21
127.6532938692
 31
0.0
  0
LINE
  5
1D3
330
15C
100
AcDbEntity
  8
visible
  6
Continuous
 62
     7
100
AcDbLine
 10
130.1105467929
 20
127.6532938692
 30
0.0
 11
130.1105467929
 21
129.8554310962
 31
0.0
  0
LINE
  5
1D4
330
15C
100
AcDbEntity
  8
visible
  6
Continuous
 62
     7
100
AcDbLine
 10
196.0212249116
 20
89.0306020498
 30
0.0
 11
196.0212249116
 21
86.8284648228
 31
0.0
  0
LINE
  5
1D5
330
15C
100
AcDbEntity
  8
visible
  6
Continuous
 62
     7
100
AcDbLine
 10
200.8212249116
 20
86.8284648228
 30
0.0
 11
200.8212249116
 21
89.0306020498
 31
0.0
  0
LINE
  5
1D6
330
15C
100
AcDbEntity
  8
visible
  6
Continuous
 62
     7
100
AcDbLine
 10
123.7992769557
 20
131.0872216391
 30
0.0
 11
123.7992769557
 21
130.9192801929
 31
0.0
  0
LINE
  5
1D7
330
15C
100
AcDbEntity
  8
visible
  6
Continuous
 62
     7
100
AcDbLine
 10
202.3324947488
 20
86.5018661904
 30
0.0
 11
202.3324947488
 21
86.8284648228
 31
0.0
  0
LINE
  5
1D8
330
15C
100
AcDbEntity
  8
visible
  6
Continuous
 62
     7
100
AcDbLine
 10
194.5099550744
 20
86.8284648228
 30
0.0
 11
194.5099550744
 21
86.5018661904
 31
0.0
  0
LINE
  5
1D9
330
15C
100
AcDbEntity
  8
visible
  6
Continuous
 62
     7
100
AcDbLine
 10
194.5099550744
 20
90.2623925927
 30
0.0
 11
194.5099550744
 21
90.0944511465
 31
0.0
  0
LINE
  5
1DA
330
15C
100
AcDbEntity
  8
visible
  6
Continuous
 62
     7
100
AcDbLine
 10
202.3324947488
 20
90.0944511465
 30
0.0
 11
202.3324947488
 21
90.2623925927
 31
0.0
  0
LINE
  5
1DB
330
15C
100
AcDbEntity
  8
visible
  6
Continuous
 62
     7
100
AcDbLine
 10
131.6218166301
 20
127.3266952368
 30
0.0
 11
131.6218166301
 21
127.6532938692
 31
0.0
  0
LINE
  5
1DC
330
15C
100
AcDbEntity
  8
visible
  6
Continuous
 62
     7
100
AcDbLine
 10
131.6218166301
 20
130.9192801929
 30
0.0
 11
131.6218166301
 21
131.0872216391
 31
0.0
  0
LINE
  5
1DD
330
15C
100
AcDbEntity
  8
visible
  6
Continuous
 62
     7
100
AcDbLine
 10
123.7992769557
 20
127.6532938692
 30
0.0
 11
123.7992769557
 21
127.3266952368
 31
0.0
  0
LINE
  5
1DE
330
15C
100
AcDbEntity
  8
visible
  6
Continuous
 62
     7
100
AcDbLine
 10
196.4279408791
 20
92.6357333751
 30
0.0
 11
195.8279142826
 21
92.289307858
 31
0.0
  0
LINE
  5
1DF
330
15C
100
AcDbEntity
  8
visible
  6
Continuous
 62
     7
100
AcDbLine
 10
196.7679686915
 20
92.0320839845
 30
0.0
 11
196.1775706671
 21
91.6912175262
 31
0.0
  0
LINE
  5
1E0
330
15C
100
AcDbEntity
  8
visible
  6
Continuous
 62
     7
100
AcDbLine
 10
196.6495609525
 20
91.5702621302
 30
0.0
 11
196.7718948534
 21
92.0473970661
 31
0.0
  0
LINE
  5
1E1
330
15C
100
AcDbEntity
  8
visible
  6
Continuous
 62
     7
100
AcDbLine
 10
196.7718948534
 20
92.0473970661
 30
0.0
 11
196.4222384689
 21
92.645487398
 31
0.0
  0
LINE
  5
1E2
330
15C
100
AcDbEntity
  8
visible
  6
Continuous
 62
     7
100
AcDbLine
 10
196.4222384689
 20
92.645487398
 30
0.0
 11
195.9502481836
 21
92.766442794
 31
0.0
  0
LINE
  5
1E3
330
15C
100
AcDbEntity
  8
visible
  6
Continuous
 62
     7
100
AcDbLine
 10
195.9502481836
 20
92.766442794
 30
0.0
 11
195.8279142826
 21
92.289307858
 31
0.0
  0
LINE
  5
1E4
330
15C
100
AcDbEntity
  8
visible
  6
Continuous
 62
     7
100
AcDbLine
 10
195.8279142826
 20
92.289307858
 30
0.0
 11
196.1775706671
 21
91.6912175262
 31
0.0
  0
LINE
  5
1E5
330
15C
100
AcDbEntity
  8
visible
  6
Continuous
 62
     7
100
AcDbLine
 10
196.1775706671
 20
91.6912175262
 30
0.0
 11
196.6495609525
 21
91.5702621302
 31
0.0
  0
ELLIPSE
  5
1E6
330
15C
100
AcDbEntity
  8
visible
  6
Continuous
 62
     7
100
AcDbEllipse
 10
196.299904568
 20
92.1683524621
 30
0.0
 11
-0.5600000000000165
 21
0.9699484522385727
 31
0.0
210
0.0
220
0.0
230
1.0
 40
0.5773502692
 41
0.0
 42
6.283185307179586
  0
LINE
  5
1E7
330
15C
100
AcDbEntity
  8
visible
  6
Continuous
 62
     7
100
AcDbLine
 10
125.4814577066
 20
133.5660832177
 30
0.0
 11
125.1035775643
 21
133.3479140158
 31
0.0
  0
LINE
  5
1E8
330
15C
100
AcDbEntity
  8
visible
  6
Continuous
 62
     7
100
AcDbLine
 10
125.9403232605
 20
133.0921823932
 30
0.0
 11
125.2906447622
 21
132.7170903373
 31
0.0
  0
LINE
  5
1E9
330
15C
100
AcDbEntity
  8
visible
  6
Continuous
 62
     7
100
AcDbLine
 10
125.2906447622
 20
132.7170903373
 30
0.0
 11
125.7762936472
 21
132.3623578299
 31
0.0
  0
LINE
  5
1EA
330
15C
100
AcDbEntity
  8
visible
  6
Continuous
 62
     7
100
AcDbLine
 10
125.7762936472
 20
132.3623578299
 30
0.0
 11
126.0748753344
 21
132.6384490011
 31
0.0
  0
LINE
  5
1EB
330
15C
100
AcDbEntity
  8
visible
  6
Continuous
 62
     7
100
AcDbLine
 10
126.0748753344
 20
132.6384490011
 30
0.0
 11
125.8878081365
 21
133.2692726796
 31
0.0
  0
LINE
  5
1EC
330
15C
100
AcDbEntity
  8
visible
  6
Continuous
 62
     7
100
AcDbLine
 10
125.8878081365
 20
133.2692726796
 30
0.0
 11
125.4021592515
 21
133.624005187
 31
0.0
  0
LINE
  5
1ED
330
15C
100
AcDbEntity
  8
visible
  6
Continuous
 62
     7
100
AcDbLine
 10
125.4021592515
 20
133.624005187
 30
0.0
 11
125.1035775643
 21
133.3479140158
 31
0.0
  0
LINE
  5
1EE
330
15C
100
AcDbEntity
  8
visible
  6
Continuous
 62
     7
100
AcDbLine
 10
125.1035775643
 20
133.3479140158
 30
0.0
 11
125.2906447622
 21
132.7170903373
 31
0.0
  0
ELLIPSE
  5
1EF
330
15C
100
AcDbEntity
  8
visible
  6
Continuous
 62
     7
100
AcDbEllipse
 10
125.5892264494
 20
132.9931815085
 30
0.0
 11
-0.5599999999999969
 21
0.9699484522385703
 31
0.0
210
0.0
220
0.0
230
1.0
 40
0.5773502692
 41
0.0
 42
6.283185307179586
  0
ENDBLK
  5
1F1
330
15C
100
AcDbEntity
  8
0
100
AcDbBlockEnd
  0
BLOCK
  5
1F8
330
1F7
100
AcDbEntity
  8
0
100
AcDbBlockBegin
  2
SEANNOT_GROUP2
 70
     0
 10
0.0
 20
0.0
 30
0.0
  3
SEANNOT_GROUP2
  1

  0
ENDBLK
  5
1F9
330
1F7
100
AcDbEntity
  8
0
100
AcDbBlockEnd
  0
BLOCK
  5
1FB
330
1FA
100
AcDbEntity
  8
0
100
AcDbBlockBegin
  2
SEANNOT_GROUP3
 70
     0
 10
0.0
 20
0.0
 30
0.0
  3
SEANNOT_GROUP3
  1

  0
ENDBLK
  5
1FC
330
1FA
100
AcDbEntity
  8
0
100
AcDbBlockEnd
  0
BLOCK
  5
201
330
200
100
AcDbEntity
  8
0
100
AcDbBlockBegin
  2
SEANNOT_GROUP4
 70
     0
 10
0.0
 20
0.0
 30
0.0
  3
SEANNOT_GROUP4
  1

  0
ENDBLK
  5
202
330
200
100
AcDbEntity
  8
0
100
AcDbBlockEnd
  0
BLOCK
  5
206
330
204
100
AcDbEntity
  8
0
100
AcDbBlockBegin
  2
Logo_ETG
 70
     0
 10
0.0
 20
0.0
 30
0.0
  3
Logo_ETG
  1

  0
IMAGE
  5
205
330
204
100
AcDbEntity
  8
0
160
               140
310
8C0000000100000084000000060000000500000070223975DFC447C0000000000000403D00000000000000000000000000002C3D000000000000403D00000000000000000000000000002C3D81987A69C1432E40000000000000000070223975DFC447C081987A69C1432E40000000000000000070223975DFC447C0000000
310
000000403D0000000000000000
100
AcDbRasterImage
 90
        0
 10
-47.538069394
 20
0.0
 30
0.0
 11
0.01609822871453239
 21
0.0
 31
0.0
 12
0.0
 22
0.01609822871453222
 32
0.0
 13
2953.0
 23
940.0
340
203
 70
     3
280
     0
281
    50
282
    50
283
     0
360
0
 71
     1
 91
        2
 14
-0.5
 24
-0.5
 14
2952.5
 24
939.5
290
     0
  0
ENDBLK
  5
207
330
204
100
AcDbEntity
  8
0
100
AcDbBlockEnd
  0
BLOCK
  5
24E
330
208
100
AcDbEntity
  8
0
100
AcDbBlockBegin
  2
Block1
 70
     0
 10
0.0
 20
0.0
 30
0.0
  3
Block1
  1

  0
LINE
  5
209
330
208
100
AcDbEntity
  8
Default
  6
Continuous
 62
     7
100
AcDbLine
 10
0.0
 20
-100.8595773
 30
0.0
 11
0.0
 21
0.0
 31
0.0
  0
LINE
  5
20A
330
208
100
AcDbEntity
  8
Default
  6
Continuous
 62
     7
100
AcDbLine
 10
111.9992373691
 20
-100.8595773
 30
0.0
 11
111.9992373691
 21
-0.0000665512
 31
0.0
  0
LINE
  5
20B
330
208
100
AcDbEntity
  8
Default
  6
Continuous
 62
     7
100
AcDbLine
 10
0.0
 20
0.0
 30
0.0
 11
285.7275327299
 21
0.0
 31
0.0
  0
LINE
  5
20C
330
208
100
AcDbEntity
  8
Default
  6
Continuous
 62
     7
100
AcDbLine
 10
0.0
 20
-11.2066197
 30
0.0
 11
112.066197
 21
-11.2066197
 31
0.0
  0
LINE
  5
20D
330
208
100
AcDbEntity
  8
Default
  6
Continuous
 62
     7
100
AcDbLine
 10
0.0
 20
-22.4132394
 30
0.0
 11
111.9992373691
 21
-22.4132394
 31
0.0
  0
LINE
  5
20E
330
208
100
AcDbEntity
  8
Default
  6
Continuous
 62
     7
100
AcDbLine
 10
0.0
 20
-33.6198591
 30
0.0
 11
112.066197
 21
-33.6198591
 31
0.0
  0
LINE
  5
20F
330
208
100
AcDbEntity
  8
Default
  6
Continuous
 62
     7
100
AcDbLine
 10
0.0
 20
-56.0330985
 30
0.0
 11
111.9992373691
 21
-56.0330985
 31
0.0
  0
LINE
  5
210
330
208
100
AcDbEntity
  8
Default
  6
Continuous
 62
     7
100
AcDbLine
 10
112.0249273799
 20
-89.6175225226
 30
0.0
 11
285.7275327299
 21
-89.6175225226
 31
0.0
  0
MTEXT
  5
211
330
208
100
AcDbEntity
  8
Default
100
AcDbMText
 10
112.118064156
 20
-40.3912442136
 30
0.0
 40
5.0
 41
175.5633018451
 46
10.1575683528
 71
     1
 72
     1
  1
{\fSolid Edge ISO|b0||i0||c0|p34;\C7;\H5.;\W1.; Kunde / Auftragsnummer:}
 73
     1
 44
1.0
1001
ACAD
1000
ACAD_MTEXT_DEFINED_HEIGHT_BEGIN
1070
    46
1040
10.1575683528
1000
ACAD_MTEXT_DEFINED_HEIGHT_END
  0
MTEXT
  5
212
330
208
100
AcDbEntity
  8
Default
100
AcDbMText
 10
111.9900755544
 20
-68.8606473633
 30
0.0
 40
5.0
 41
174.9732984412
 46
8.9190678798
 71
     1
 72
     1
  1
{\fSolid Edge ISO|b0||i0||c0|p34;\C7;\H5.;\W1.; Benennung:}
 73
     1
 44
1.0
1001
ACAD
1000
ACAD_MTEXT_DEFINED_HEIGHT_BEGIN
1070
    46
1040
8.9190678798
1000
ACAD_MTEXT_DEFINED_HEIGHT_END
  0
INSERT
  5
213
330
208
100
AcDbEntity
  8
Default
100
AcDbBlockReference
  2
SEANNOT_GROUP2
 10
0.0
 20
0.0
 30
0.0
  0
MULTILEADER
  5
214
330
208
100
AcDbEntity
  8
Default
  6
Continuous
 62
     7
160
               276
310
14010000020000000C00000013000000993A000000010000260000008698CE54FC095D40CB3DBEF5F8AD58C0000000000000000000000000000000000000000000000000000000000000F03F000000000000F03F00000000000000000000000000000000460049004C00450020004E0041004D0045003A002000480044002D
310
003100300034002D003400300030002D00310035002E00640066007400000000001C00000001000000FCA9F1D24D621840000000000000F03F0000000000000000000000000000F03F00000000000000000000000000000000000000000000000000000000000000002200000053006F006C00690064002000450064006700
310
65002000490053004F00000000000000000000000000
100
AcDbMLeader
270
     2
300
CONTEXT_DATA{
 40
1.0
 10
114.6254180789
 20
-95.6947043085
 30
0.0
 41
6.096
140
6.096
145
2.1336
174
     1
175
     1
176
     0
177
     0
290
     1
304
{\pxsm0.9;\fSolid Edge ISO|b0||i0||c0|p34;\W1.;FILE NAME: HD-104-400-15.dft\P}
 11
0.0
 21
0.0
 31
1.0
340
11
 12
116.6254180789
 22
-92.6162243085
 32
0.0
 13
1.0
 23
0.0
 33
0.0
 42
0.0
 43
0.0
 44
0.0
 45
1.0
170
     1
 90
-1073741824
171
     1
172
     1
 91
-939524096
141
1.5
 92
        0
291
     0
292
     0
173
     0
293
     0
142
0.0
143
0.0
294
     0
295
     0
296
     0
110
0.0
120
0.0
130
0.0
111
1.0
121
0.0
131
0.0
112
0.0
122
1.0
132
0.0
297
     0
272
     9
273
     9
301
}
340
6C
 90
 35117985
170
     0
 91
-1056964608
341
14
171
    -2
290
     1
291
     1
 41
0.0
342
D9
 42
4.0
172
     2
343
11
173
     1
 95
        1
174
     1
175
     0
 92
-1073741824
292
     0
 93
-1023410169
 10
1.0
 20
1.0
 30
1.0
 43
0.0
176
     0
293
     0
294
     0
178
     0
179
     1
 45
1.0
271
     0
272
     9
273
     9
295
     0
  0
LINE
  5
215
330
208
100
AcDbEntity
  8
Default
  6
Continuous
 62
     7
100
AcDbLine
 10
-0.0412696201
 20
-67.2042831226
 30
0.0
 11
112.0249273799
 21
-67.2042831226
 31
0.0
  0
LINE
  5
216
330
208
100
AcDbEntity
  8
Default
  6
Continuous
 62
     7
100
AcDbLine
 10
0.0
 20
-44.8264788
 30
0.0
 11
111.9992373691
 21
-44.8264788
 31
0.0
  0
LINE
  5
217
330
208
100
AcDbEntity
  8
Default
  6
Continuous
 62
     7
100
AcDbLine
 10
0.0
 20
-78.4463379
 30
0.0
 11
112.066197
 21
-78.4463379
 31
0.0
  0
LINE
  5
218
330
208
100
AcDbEntity
  8
Default
  6
Continuous
 62
     7
100
AcDbLine
 10
0.0
 20
-11.2066197
 30
0.0
 11
112.066197
 21
-11.2066197
 31
0.0
  0
LINE
  5
219
330
208
100
AcDbEntity
  8
Default
  6
Continuous
 62
     7
100
AcDbLine
 10
0.0
 20
-89.6175225226
 30
0.0
 11
112.0249273799
 21
-89.6175225226
 31
0.0
  0
MTEXT
  5
21A
330
208
100
AcDbEntity
  8
Default
100
AcDbMText
 10
0.0670673608
 20
-35.2713343478
 30
0.0
 40
6.0
 41
56.669237033
 46
11.2283813292
 71
     1
 72
     1
  1
{\fSolid Edge ISO|b0||i0||c0|p34;\C7;\H6.;\W1.; Glasart}
 73
     1
 44
1.0
1001
ACAD
1000
ACAD_MTEXT_DEFINED_HEIGHT_BEGIN
1070
    46
1040
11.2283813292
1000
ACAD_MTEXT_DEFINED_HEIGHT_END
  0
MTEXT
  5
21B
330
208
100
AcDbEntity
  8
Default
100
AcDbMText
 10
0.0670673608
 20
-46.557559687
 30
0.0
 40
6.0
 41
56.0009770913
 46
11.3189327915
 71
     1
 72
     1
  1
{\fSolid Edge ISO|b0||i0||c0|p34;\C7;\H6.;\W1.; Glasstärke}
 73
     1
 44
1.0
1001
ACAD
1000
ACAD_MTEXT_DEFINED_HEIGHT_BEGIN
1070
    46
1040
11.3189327915
1000
ACAD_MTEXT_DEFINED_HEIGHT_END
  0
MTEXT
  5
21C
330
208
100
AcDbEntity
  8
Default
100
AcDbMText
 10
0.0670673608
 20
-58.4901537437
 30
0.0
 40
6.0
 41
45.1067918707
 46
10.5363322311
 71
     1
 72
     1
  1
{\fSolid Edge ISO|b0||i0||c0|p34;\C7;\H6.;\W1.; Kanten}
 73
     1
 44
1.0
1001
ACAD
1000
ACAD_MTEXT_DEFINED_HEIGHT_BEGIN
1070
    46
1040
10.5363322311
1000
ACAD_MTEXT_DEFINED_HEIGHT_END
  0
MTEXT
  5
21D
330
208
100
AcDbEntity
  8
Default
100
AcDbMText
 10
0.0670673608
 20
-68.8196677929
 30
0.0
 40
5.3
 41
45.1067918707
 46
11.1499934961
 71
     1
 72
     1
  1
{\fSolid Edge ISO|b0||i0||c0|p34;\C7;\H5.3;\W1.; Glas}
 73
     1
 44
1.0
1001
ACAD
1000
ACAD_MTEXT_DEFINED_HEIGHT_BEGIN
1070
    46
1040
11.1499934961
1000
ACAD_MTEXT_DEFINED_HEIGHT_END
  0
MTEXT
  5
21E
330
208
100
AcDbEntity
  8
Default
100
AcDbMText
 10
78.4735420421
 20
-39.2309530782
 30
0.0
 40
5.294466
 41
66.5148959735
 46
11.2091222495
 71
     5
 72
     1
  1
{\fSolid Edge ISO|b0||i0||c0|p34;\C7;\H5.294466;\W1.;-}
 73
     1
 44
1.0
1001
ACAD
1000
ACAD_MTEXT_DEFINED_HEIGHT_BEGIN
1070
    46
1040
11.2091222495
1000
ACAD_MTEXT_DEFINED_HEIGHT_END
  0
MTEXT
  5
21F
330
208
100
AcDbEntity
  8
Default
100
AcDbMText
 10
78.3650076282
 20
-47.121412284
 30
0.0
 40
6.0
 41
66.2978271457
 46
10.7466332298
 71
     2
 72
     1
  1
{\fSolid Edge ISO|b1||i0||c0|p34;\C7;\H6.;\W1.;-}
 73
     1
 44
1.0
1001
ACAD
1000
ACAD_MTEXT_DEFINED_HEIGHT_BEGIN
1070
    46
1040
10.7466332298
1000
ACAD_MTEXT_DEFINED_HEIGHT_END
  0
MTEXT
  5
220
330
208
100
AcDbEntity
  8
Default
100
AcDbMText
 10
78.3704136857
 20
-57.7835758661
 30
0.0
 40
6.0
 41
66.3086392606
 46
11.2344631438
 71
     2
 72
     1
  1
{\fSolid Edge ISO|b0||i0||c0|p34;\C7;\H6.;\W1.;-}
 73
     1
 44
1.0
1001
ACAD
1000
ACAD_MTEXT_DEFINED_HEIGHT_BEGIN
1070
    46
1040
11.2344631438
1000
ACAD_MTEXT_DEFINED_HEIGHT_END
  0
MTEXT
  5
221
330
208
100
AcDbEntity
  8
Default
100
AcDbMText
 10
79.2743943402
 20
-68.9335693622
 30
0.0
 40
6.0
 41
68.0321309219
 46
11.3189327915
 71
     2
 72
     1
  1
{\fSolid Edge ISO|b0||i0||c0|p34;\C7;\H6.;\W1.;-}
 73
     1
 44
1.0
1001
ACAD
1000
ACAD_MTEXT_DEFINED_HEIGHT_BEGIN
1070
    46
1040
11.3189327915
1000
ACAD_MTEXT_DEFINED_HEIGHT_END
  0
MTEXT
  5
222
330
208
100
AcDbEntity
  8
Default
100
AcDbMText
 10
198.9281639291
 20
-77.3707751473
 30
0.0
 40
6.0
 41
173.921684772
 46
14.1568212171
 71
     2
 72
     1
  1
{\fSolid Edge ISO|b0||i0||c0|p34;\C7;\H6.;\W1.;HD-104-400-15/15}
 73
     1
 44
1.0
1001
ACAD
1000
ACAD_MTEXT_DEFINED_HEIGHT_BEGIN
1070
    46
1040
14.1568212171
1000
ACAD_MTEXT_DEFINED_HEIGHT_END
  0
INSERT
  5
223
330
208
100
AcDbEntity
  8
Default
100
AcDbBlockReference
  2
SEANNOT_GROUP3
 10
0.0
 20
0.0
 30
0.0
  0
MULTILEADER
  5
224
330
208
100
AcDbEntity
  8
Default
  6
Continuous
 62
     7
160
               240
310
F0000000020000000C00000013000000993A0000DC000000260000000D1A09A115DB6E40969B4EA7195441C0000000000000000000000000000000000000000000000000000000000000F03F000000000000F03F00000000000000000000000000000000310032002E00300035002E003200300031003600000000000A0000
310
0001000000FCA9F1D24D621840000000000000F03F0000000000000000000000000000F03F00000000000000000000000000000000000000000000000000000000000000002200000053006F006C0069006400200045006400670065002000490053004F00000000000000000000000000
100
AcDbMLeader
270
     2
300
CONTEXT_DATA{
 40
1.0
 10
245.1146142643
 20
-31.609032884
 30
0.0
 41
6.096
140
6.096
145
2.1336
174
     1
175
     1
176
     0
177
     0
290
     1
304
{\pxsm0.9;\fSolid Edge ISO|b0||i0||c0|p34;\W1.;12.05.2016\P}
 11
0.0
 21
0.0
 31
1.0
340
11
 12
247.1146142643
 22
-28.530552884
 32
0.0
 13
1.0
 23
0.0
 33
0.0
 42
0.0
 43
0.0
 44
0.0
 45
1.0
170
     1
 90
-1073741824
171
     1
172
     1
 91
-939524096
141
1.5
 92
        0
291
     0
292
     0
173
     0
293
     0
142
0.0
143
0.0
294
     0
295
     0
296
     0
110
0.0
120
0.0
130
0.0
111
1.0
121
0.0
131
0.0
112
0.0
122
1.0
132
0.0
297
     0
272
     9
273
     9
301
}
340
6C
 90
 35117985
170
     0
 91
-1056964608
341
14
171
    -2
290
     1
291
     1
 41
0.0
342
D9
 42
4.0
172
     2
343
11
173
     1
 95
        1
174
     1
175
     0
 92
-1073741824
292
     0
 93
-1023410169
 10
1.0
 20
1.0
 30
1.0
 43
0.0
176
     0
293
     0
294
     0
178
     0
179
     1
 45
1.0
271
     0
272
     9
273
     9
295
     0
  0
MTEXT
  5
225
330
208
100
AcDbEntity
  8
Default
100
AcDbMText
 10
55.943739313
 20
-24.3116293226
 30
0.0
 40
6.0
 41
113.0415060319
 46
11.19222832
 71
     2
 72
     1
  1
{\fSolid Edge ISO|b1||i0||c0|p34;\C7;\H6.;\W1.;Glaseigenschaften:}
 73
     1
 44
1.0
1001
ACAD
1000
ACAD_MTEXT_DEFINED_HEIGHT_BEGIN
1070
    46
1040
11.19222832
1000
ACAD_MTEXT_DEFINED_HEIGHT_END
  0
LINE
  5
226
330
208
100
AcDbEntity
  8
Default
  6
Continuous
 62
     7
100
AcDbLine
 10
45.2209835947
 20
-33.6198591
 30
0.0
 11
45.2209835947
 21
-100.752681645
 31
0.0
  0
MTEXT
  5
227
330
208
100
AcDbEntity
  8
Default
100
AcDbMText
 10
-0.0005425398
 20
-1.8367402185
 30
0.0
 40
6.0
 41
27.1954404525
 46
11.3393238284
 71
     1
 72
     1
  1
{\fSolid Edge ISO|b0||i0||c0|p34;\C7;\H6.;\W0.97; Material:}
  7
SEACAD_Solid_Edge_ISO
 73
     1
 44
1.0
1001
ACAD
1000
ACAD_MTEXT_DEFINED_HEIGHT_BEGIN
1070
    46
1040
11.3393238284
1000
ACAD_MTEXT_DEFINED_HEIGHT_END
  0
MTEXT
  5
228
330
208
100
AcDbEntity
  8
Default
100
AcDbMText
 10
-0.0208152552
 20
-13.1428167936
 30
0.0
 40
6.0
 41
33.2084378414
 46
11.2445995016
 71
     1
 72
     1
  1
{\fSolid Edge ISO|b0||i0||c0|p34;\C7;\H6.;\W0.911; Oberfläche:}
  7
SEACAD_Solid_Edge_ISO
 73
     1
 44
1.0
1001
ACAD
1000
ACAD_MTEXT_DEFINED_HEIGHT_BEGIN
1070
    46
1040
11.2445995016
1000
ACAD_MTEXT_DEFINED_HEIGHT_END
  0
MTEXT
  5
229
330
208
100
AcDbEntity
  8
Default
100
AcDbMText
 10
-0.0089553221
 20
-80.374238653
 30
0.0
 40
6.0
 41
45.7284884778
 46
11.1451077194
 71
     1
 72
     1
  1
{\fSolid Edge ISO|b0||i0||c0|p34;\C7;\H6.;\W0.911; Beschichtung}
  7
SEACAD_Solid_Edge_ISO
 73
     1
 44
1.0
1001
ACAD
1000
ACAD_MTEXT_DEFINED_HEIGHT_BEGIN
1070
    46
1040
11.1451077194
1000
ACAD_MTEXT_DEFINED_HEIGHT_END
  0
MTEXT
  5
22A
330
208
100
AcDbEntity
  8
Default
100
AcDbMText
 10
78.6441124354
 20
-80.4332632531
 30
0.0
 40
6.0
 41
67.4392827835
 46
11.1650150283
 71
     2
 72
     1
  1
{\fSolid Edge ISO|b0||i0||c0|p34;\C7;\H6.;\W1.;-}
 73
     1
 44
1.0
1001
ACAD
1000
ACAD_MTEXT_DEFINED_HEIGHT_BEGIN
1070
    46
1040
11.1650150283
1000
ACAD_MTEXT_DEFINED_HEIGHT_END
  0
LINE
  5
22B
330
208
100
AcDbEntity
  8
Default
  6
Continuous
 62
     7
100
AcDbLine
 10
45.2209835947
 20
-22.4132394
 30
0.0
 11
45.2209835947
 21
0.0
 31
0.0
  0
MTEXT
  5
22C
330
208
100
AcDbEntity
  8
Default
100
AcDbMText
 10
78.6428197398
 20
-1.9208267336
 30
0.0
 40
6.0
 41
67.4870588162
 46
11.2719634439
 71
     2
 72
     1
  1
{\fSolid Edge ISO|b0||i0||c0|p34;\C7;\H6.;\W0.911;1.4301 (V2A)}
  7
SEACAD_Solid_Edge_ISO
 73
     1
 44
1.0
1001
ACAD
1000
ACAD_MTEXT_DEFINED_HEIGHT_BEGIN
1070
    46
1040
11.2719634439
1000
ACAD_MTEXT_DEFINED_HEIGHT_END
  0
MTEXT
  5
22D
330
208
100
AcDbEntity
  8
Default
100
AcDbMText
 10
78.6428197398
 20
-13.1654262351
 30
0.0
 40
6.0
 41
67.4870588162
 46
11.2449331567
 71
     2
 72
     1
  1
{\fSolid Edge ISO|b0||i0||c0|p34;\C7;\H6.;\W1.; geschliffen K240}
 73
     1
 44
1.0
1001
ACAD
1000
ACAD_MTEXT_DEFINED_HEIGHT_BEGIN
1070
    46
1040
11.2449331567
1000
ACAD_MTEXT_DEFINED_HEIGHT_END
  0
LINE
  5
22E
330
208
100
AcDbEntity
  8
Default
  6
Continuous
 62
     7
100
AcDbLine
 10
112.0249273799
 20
-67.2042831226
 30
0.0
 11
285.7275327299
 21
-67.2042831226
 31
0.0
  0
LINE
  5
22F
330
208
100
AcDbEntity
  8
Default
  6
Continuous
 62
     7
100
AcDbLine
 10
137.3740242346
 20
-18.4280335306
 30
0.0
 11
137.3740242346
 21
-38.8985532838
 31
0.0
  0
LINE
  5
230
330
208
100
AcDbEntity
  8
Default
  6
Continuous
 62
     7
100
AcDbLine
 10
111.9992373691
 20
-18.4280335306
 30
0.0
 11
160.3582403047
 21
-18.4280335306
 31
0.0
  0
LINE
  5
231
330
208
100
AcDbEntity
  8
Default
  6
Continuous
 62
     7
100
AcDbLine
 10
160.3582403047
 20
-18.4280335306
 30
0.0
 11
160.3582403047
 21
-38.8985532838
 31
0.0
  0
LINE
  5
232
330
208
100
AcDbEntity
  8
Default
  6
Continuous
 62
     7
100
AcDbLine
 10
160.3582403047
 20
-18.4280335306
 30
0.0
 11
208.7172432403
 21
-18.4280335306
 31
0.0
  0
IMAGE
  5
233
330
208
100
AcDbEntity
  8
0
160
               140
310
8C0000000100000084000000060000000500000038903E55E1A95C40E01D20B2429340C000000000000000001C489FAAF0D46040E01D20B2429340C000000000000000001C489FAAF0D460402FCC46CD152D38C0000000000000000038903E55E1A95C402FCC46CD152D38C0000000000000000038903E55E1A95C40E01D20
310
B2429340C00000000000000000
100
AcDbRasterImage
 90
        0
 10
114.654378234
 20
-33.1504728944
 30
0.0
 11
0.1282051282051282
 21
0.0
 31
0.0
 12
0.0
 22
0.1282051282051279
 32
0.0
 13
156.0
 23
70.0
340
1FF
 70
     3
280
     0
281
    50
282
    50
283
     0
360
0
 71
     1
 91
        2
 14
-0.5
 24
-0.5
 14
155.5
 24
69.5
290
     0
  0
MTEXT
  5
234
330
208
100
AcDbEntity
  8
Default
100
AcDbMText
 10
175.4191535578
 20
-20.0525617214
 30
0.0
 40
5.0
 41
29.3481343962
 46
8.3721130233
 71
     2
 72
     1
  1
{\fSolid Edge ISO|b0||i0||c0|p34;\C7;\H5.;\W1.;Maßstab:}
 73
     1
 44
1.0
1001
ACAD
1000
ACAD_MTEXT_DEFINED_HEIGHT_BEGIN
1070
    46
1040
8.3721130233
1000
ACAD_MTEXT_DEFINED_HEIGHT_END
  0
LINE
  5
235
330
208
100
AcDbEntity
  8
Default
  6
Continuous
 62
     7
100
AcDbLine
 10
208.7172432403
 20
-18.4280335306
 30
0.0
 11
285.7275327299
 21
-18.4280335306
 31
0.0
  0
LINE
  5
236
330
208
100
AcDbEntity
  8
Default
  6
Continuous
 62
     7
100
AcDbLine
 10
235.9775070669
 20
-18.4280335306
 30
0.0
 11
235.9775070669
 21
-38.8985532838
 31
0.0
  0
LINE
  5
237
330
208
100
AcDbEntity
  8
Default
  6
Continuous
 62
     7
100
AcDbLine
 10
111.9992373691
 20
-38.8985532838
 30
0.0
 11
285.7275327299
 21
-38.8985532838
 31
0.0
  0
MTEXT
  5
238
330
208
100
AcDbEntity
  8
Default
100
AcDbMText
 10
214.3997435791
 20
-20.0278965843
 30
0.0
 40
5.0
 41
49.3853204131
 46
8.3721130233
 71
     2
 72
     1
  1
{\fSolid Edge ISO|b0||i0||c0|p34;\C7;\H5.;\W1.;Bearbeiter:}
 73
     1
 44
1.0
1001
ACAD
1000
ACAD_MTEXT_DEFINED_HEIGHT_BEGIN
1070
    46
1040
8.3721130233
1000
ACAD_MTEXT_DEFINED_HEIGHT_END
  0
MTEXT
  5
239
330
208
100
AcDbEntity
  8
Default
100
AcDbMText
 10
260.8187596134
 20
-20.0278965843
 30
0.0
 40
5.0
 41
50.3869569351
 46
8.3793890516
 71
     2
 72
     1
  1
{\fSolid Edge ISO|b0||i0||c0|p34;\C7;\H5.;\W1.;Zeichnungsdatum:}
 73
     1
 44
1.0
1001
ACAD
1000
ACAD_MTEXT_DEFINED_HEIGHT_BEGIN
1070
    46
1040
8.3793890516
1000
ACAD_MTEXT_DEFINED_HEIGHT_END
  0
MTEXT
  5
23A
330
208
100
AcDbEntity
  8
Default
100
AcDbMText
 10
113.184514264
 20
-6.6437743765
 30
0.0
 40
5.0
 41
26.151154752
 46
9.8653814861
 71
     1
 72
     1
  1
{\fSolid Edge ISO|b0||i0||c0|p34;\C7;\H5.;\W1.;Stückzahl}
 73
     1
 44
1.0
1001
ACAD
1000
ACAD_MTEXT_DEFINED_HEIGHT_BEGIN
1070
    46
1040
9.8653814861
1000
ACAD_MTEXT_DEFINED_HEIGHT_END
  0
MTEXT
  5
23B
330
208
100
AcDbEntity
  8
Default
100
AcDbMText
 10
175.1480452539
 20
-9.240438329
 30
0.0
 40
7.0
 41
30.0306491496
 46
21.5010570825
 71
     5
 72
     1
  1
{\fSolid Edge ISO|b0||i0||c0|p34;\C7;\H6.;\W1.;Version:\P}{\fSolid Edge ISO|b0||i0||c0|p34;\C7;\H7.;\W1.;-}
 73
     1
 44
1.0
1001
ACAD
1000
ACAD_MTEXT_DEFINED_HEIGHT_BEGIN
1070
    46
1040
21.5010570825
1000
ACAD_MTEXT_DEFINED_HEIGHT_END
  0
LINE
  5
23C
330
208
100
AcDbEntity
  8
Default
  6
Continuous
 62
     7
100
AcDbLine
 10
236.1605553386
 20
-18.4280335306
 30
0.0
 11
236.1605553386
 21
0.0
 31
0.0
  0
LINE
  5
23D
330
208
100
AcDbEntity
  8
Default
  6
Continuous
 62
     7
100
AcDbLine
 10
160.3582403047
 20
-18.4280335306
 30
0.0
 11
160.3582403047
 21
0.0
 31
0.0
  0
MTEXT
  5
23E
330
208
100
AcDbEntity
  8
Default
100
AcDbMText
 10
148.9580645356
 20
-3.2595007412
 30
0.0
 40
10.0
 41
23.075671828
 46
18.3696079033
 71
     2
 72
     1
  1
{\fSolid Edge ISO|b1||i0||c0|p34;\C7;\H10.;\W1.;1}
 73
     1
 44
1.0
1001
ACAD
1000
ACAD_MTEXT_DEFINED_HEIGHT_BEGIN
1070
    46
1040
18.3696079033
1000
ACAD_MTEXT_DEFINED_HEIGHT_END
  0
LINE
  5
23F
330
208
100
AcDbEntity
  8
Default
  6
Continuous
 62
     7
100
AcDbLine
 10
190.0023931669
 20
-18.4280335306
 30
0.0
 11
190.0023931669
 21
0.0
 31
0.0
  0
MTEXT
  5
240
330
208
100
AcDbEntity
  8
Default
100
AcDbMText
 10
213.1004500385
 20
-1.1904178718
 30
0.0
 40
3.6
 41
46.6018005039
 46
18.3696079033
 71
     2
 72
     1
  1
{\fSolid Edge ISO|b0||i0||c0|p34;\C7;\H3.6;\W1.;\T1.;Allgemeintoleranzen:\P}{\fSolid Edge ISO|b0||i0||c0|p34;\C7;\H3.6;\W1.;\T1.;(gelten nicht für Gläser)\P}{\fSolid Edge ISO|b0||i0||c0|p34;\C7;\H3.6;\W1.;\T1.;DIN ISO 2768-vL}
 73
     1
 44
1.0
1001
ACAD
1000
ACAD_MTEXT_DEFINED_HEIGHT_BEGIN
1070
    46
1040
18.3696079033
1000
ACAD_MTEXT_DEFINED_HEIGHT_END
  0
LINE
  5
241
330
208
100
AcDbEntity
  8
Default
  6
Continuous
 62
     7
100
AcDbLine
 10
190.0023931669
 20
-18.4280335306
 30
0.0
 11
190.0023931669
 21
-38.8985532838
 31
0.0
  0
LINE
  5
242
330
208
100
AcDbEntity
  8
Default
  6
Continuous
 62
     7
100
AcDbLine
 10
111.9992373691
 20
-89.6529576
 30
0.0
 11
112.066197
 21
-89.6529576
 31
0.0
  0
MTEXT
  5
243
330
208
100
AcDbEntity
  8
Default
100
AcDbMText
 10
149.2163871468
 20
-20.9039819044
 30
0.0
 40
5.0
 41
24.9800399744
 46
9.8925666818
 71
     2
 72
     1
  1
{\fSolid Edge ISO|b0||i0||c0|p34;\C7;\H5.;\W1.;Blatt}
 73
     1
 44
1.0
1001
ACAD
1000
ACAD_MTEXT_DEFINED_HEIGHT_BEGIN
1070
    46
1040
9.8925666818
1000
ACAD_MTEXT_DEFINED_HEIGHT_END
  0
MTEXT
  5
244
330
208
100
AcDbEntity
  8
Default
100
AcDbMText
 10
-0.0469023376
 20
-95.3063604701
 30
0.0
 40
6.0
 41
45.6875110565
 46
11.4810049396
 71
     4
 72
     1
  1
{\fSolid Edge ISO|b0||i0||c0|p34;\C7;\H6.;\W1.; Sonstiges}
 73
     1
 44
1.0
1001
ACAD
1000
ACAD_MTEXT_DEFINED_HEIGHT_BEGIN
1070
    46
1040
11.4810049396
1000
ACAD_MTEXT_DEFINED_HEIGHT_END
  0
MTEXT
  5
245
330
208
100
AcDbEntity
  8
Default
100
AcDbMText
 10
78.6444795684
 20
-95.3398860301
 30
0.0
 40
6.0
 41
67.4598132798
 46
11.7209502326
 71
     5
 72
     1
  1
{\fSolid Edge ISO|b0||i0||c0|p34;\C7;\H6.;\W1.;-}
 73
     1
 44
1.0
1001
ACAD
1000
ACAD_MTEXT_DEFINED_HEIGHT_BEGIN
1070
    46
1040
11.7209502326
1000
ACAD_MTEXT_DEFINED_HEIGHT_END
  0
LINE
  5
246
330
208
100
AcDbEntity
  8
Default
  6
Continuous
 62
     7
100
AcDbLine
 10
0.0
 20
0.0
 30
0.0
 11
0.0
 21
11.8594922002
 31
0.0
  0
LINE
  5
247
330
208
100
AcDbEntity
  8
Default
  6
Continuous
 62
     7
100
AcDbLine
 10
0.0
 20
11.8594922002
 30
0.0
 11
111.9992373691
 21
11.8594922002
 31
0.0
  0
LINE
  5
248
330
208
100
AcDbEntity
  8
Default
  6
Continuous
 62
     7
100
AcDbLine
 10
111.9992373691
 20
11.8594922002
 30
0.0
 11
111.9992373691
 21
0.0
 31
0.0
  0
MTEXT
  5
249
330
208
100
AcDbEntity
  8
Default
100
AcDbMText
 10
56.0111218635
 20
5.9386891464
 30
0.0
 40
6.0
 41
113.0591961424
 46
12.0191770461
 71
     5
 72
     1
  1
{\fSolid Edge ISO|b0||i0||c0|p34;\C7;\H6.;\W1.;Metalleigenschaften}
 73
     1
 44
1.0
1001
ACAD
1000
ACAD_MTEXT_DEFINED_HEIGHT_BEGIN
1070
    46
1040
12.0191770461
1000
ACAD_MTEXT_DEFINED_HEIGHT_END
  0
INSERT
  5
24A
330
208
100
AcDbEntity
  8
Default
100
AcDbBlockReference
  2
SEANNOT_GROUP4
 10
0.0
 20
0.0
 30
0.0
  0
MULTILEADER
  5
24B
330
208
100
AcDbEntity
  8
Default
  6
Continuous
 62
     7
160
               224
310
E0000000020000000C00000013000000993A0000CC00000026000000BD5066E30A606540FAFB6E2C9F4C41C0000000000000000000000000000000000000000000000000000000000000F03F000000000000F03F0000000000000000000000000000000031003A00320000000300000001000000FCA9F1D24D621840000000
310
000000F03F0000000000000000000000000000F03F00000000000000000000000000000000000000000000000000000000000000002200000053006F006C0069006400200045006400670065002000490053004F00000000000000000000000000
100
AcDbMLeader
270
     2
300
CONTEXT_DATA{
 40
1.0
 10
169.2695531357
 20
-31.5414635918
 30
0.0
 41
6.096
140
6.096
145
2.1336
174
     1
175
     1
176
     0
177
     0
290
     1
304
{\pxsm0.9;\fSolid Edge ISO|b0||i0||c0|p34;\W1.;1:2\P}
 11
0.0
 21
0.0
 31
1.0
340
11
 12
171.2695531357
 22
-28.4843195918
 32
0.0
 13
1.0
 23
0.0
 33
0.0
 42
0.0
 43
0.0
 44
0.0
 45
1.0
170
     1
 90
-1073741824
171
     1
172
     1
 91
-939524096
141
1.5
 92
        0
291
     0
292
     0
173
     0
293
     0
142
0.0
143
0.0
294
     0
295
     0
296
     0
110
0.0
120
0.0
130
0.0
111
1.0
121
0.0
131
0.0
112
0.0
122
1.0
132
0.0
297
     0
272
     9
273
     9
301
}
340
6C
 90
 35117985
170
     0
 91
-1056964608
341
14
171
    -2
290
     1
291
     1
 41
0.0
342
D9
 42
4.0
172
     2
343
11
173
     1
 95
        1
174
     1
175
     0
 92
-1073741824
292
     0
 93
-1023410169
 10
1.0
 20
1.0
 30
1.0
 43
0.0
176
     0
293
     0
294
     0
178
     0
179
     1
 45
1.0
271
     0
272
     9
273
     9
295
     0
  0
INSERT
  5
24C
330
208
100
AcDbEntity
  8
Default
 62
     7
100
AcDbBlockReference
  2
Logo_ETG
 10
284.4746535487
 20
-16.676752157
 30
0.0
  0
MTEXT
  5
24D
330
208
100
AcDbEntity
  8
Default
100
AcDbMText
 10
200.7377259549
 20
-27.6940709841
 30
0.0
 40
7.0
 41
25.2270656545
 46
11.4545654545
 71
     1
 72
     1
  1
{\fSolid Edge ISO|b0||i0||c0|p34;\C7;\H7.;\W1.;Technik}
 73
     1
 44
1.0
1001
ACAD
1000
ACAD_MTEXT_DEFINED_HEIGHT_BEGIN
1070
    46
1040
11.4545654545
1000
ACAD_MTEXT_DEFINED_HEIGHT_END
  0
ENDBLK
  5
24F
330
208
100
AcDbEntity
  8
0
100
AcDbBlockEnd
  0
ENDSEC
  0
SECTION
  2
ENTITIES
  0
INSERT
  5
70
330
1F
100
AcDbEntity
  8
Default
100
AcDbBlockReference
  2
SEANNOT_GROUP
 10
0.0
 20
0.0
 30
0.0
  0
INSERT
  5
75
330
1F
100
AcDbEntity
  8
Default
100
AcDbBlockReference
  2
SEANNOT_GROUP1
 10
0.0
 20
0.0
 30
0.0
  0
INSERT
  5
7A
330
1F
100
AcDbEntity
  8
Default
100
AcDbBlockReference
  2
SE
 10
0.0
 20
0.0
 30
0.0
  0
DIMENSION
  5
E8
330
1F
100
AcDbEntity
  8
Default
  6
Continuous
 62
     7
100
AcDbDimension
280
     0
  2
DMBLK1
 10
475.5571178751
 20
289.2780572446
 30
0.0
 11
502.7389694484
 21
289.2780572446
 31
0.0
 70
   160
  1
\A1;%%C <>
 71
     5
 42
-1.0
 73
     0
 74
     0
 75
     0
  3
Glasprofi24
100
AcDbAlignedDimension
 13
487.5571178751
 23
284.4211080382
 33
0.0
 14
475.5571178751
 24
289.4211080382
 34
0.0
100
AcDbRotatedDimension
  0
DIMENSION
  5
F2
330
1F
100
AcDbEntity
  8
Default
  6
Continuous
 62
     7
100
AcDbDimension
280
     0
  2
DMBLK2
 10
156.5571178751
 20
375.8553451816
 30
0.0
 11
356.5571148948
 21
375.8553451816
 31
0.0
 70
   160
  1
\A1;<>
 71
     5
 42
-1.0
 73
     0
 74
     0
 75
     0
  3
Glasprofi24
100
AcDbAlignedDimension
 13
556.5571178751
 23
350.5211080382
 33
0.0
 14
156.5571178751
 24
350.5211080382
 34
0.0
100
AcDbRotatedDimension
  0
DIMENSION
  5
FC
330
1F
100
AcDbEntity
  8
Default
  6
Continuous
 62
     7
100
AcDbDimension
280
     0
  2
DMBLK3
 10
231.5571178751
 20
193.0164383361
 30
0.0
 11
356.5571178751
 21
193.0164383361
 31
0.0
 70
   160
  1
\A1;<>
 71
     5
 42
-1.0
 73
     0
 74
     0
 75
     0
  3
Glasprofi24
100
AcDbAlignedDimension
 13
481.5571178751
 23
277.4211080382
 33
0.0
 14
231.5571178751
 24
277.4211080382
 34
0.0
100
AcDbRotatedDimension
  0
DIMENSION
  5
106
330
1F
100
AcDbEntity
  8
Default
  6
Continuous
 62
     7
100
AcDbDimension
280
     0
  2
DMBLK4
 10
135.5532531695
 20
343.0211080382
 30
0.0
 11
135.5532531695
 21
289.4211096833
 31
0.0
 70
   161
  1
\A1;108 {}
 71
     5
 42
-1.0
 73
     0
 74
     0
 75
     0
  3
Glasprofi24
100
AcDbAlignedDimension
 13
156.5571178751
 23
343.0211080382
 33
0.0
 14
156.5571178751
 24
235.8211080382
 34
0.0
1001
ACAD
1000
DSTYLE
1002
{
1070
   271
1070
     0
1070
     0
1002
}
  0
INSERT
  5
111
330
1F
100
AcDbEntity
  8
Default
100
AcDbBlockReference
  2
SE1
 10
0.0
 20
0.0
 30
0.0
  0
DIMENSION
  5
134
330
1F
100
AcDbEntity
  8
Default
  6
Continuous
 62
     7
100
AcDbDimension
280
     0
  2
DMBLK5
 10
34.5023081946
 20
228.3211080382
 30
0.0
 11
34.5023081946
 21
289.4211066911
 31
0.0
 70
   161
  1
\A1;123 {}
 71
     5
 42
-1.0
 73
     0
 74
     0
 75
     0
  3
Glasprofi24
100
AcDbAlignedDimension
 13
61.7200427997
 23
228.3211080382
 33
0.0
 14
61.7200427997
 24
350.5211080382
 34
0.0
1001
ACAD
1000
DSTYLE
1002
{
1070
   271
1070
     0
1070
     0
1002
}
  0
DIMENSION
  5
13E
330
1F
100
AcDbEntity
  8
Default
  6
Continuous
 62
     7
100
AcDbDimension
280
     0
  2
DMBLK6
 10
61.7200427997
 20
359.0482640037
 30
0.0
 11
69.2200429673
 21
359.0482640037
 31
0.0
 70
   160
  1
\A1;<>
 71
     5
 42
-1.0
 73
     0
 74
     0
 75
     0
  3
Glasprofi24
100
AcDbAlignedDimension
 13
76.7200427997
 23
350.5211080382
 33
0.0
 14
61.7200427997
 24
350.5211080382
 34
0.0
100
AcDbRotatedDimension
  0
DIMENSION
  5
148
330
1F
100
AcDbEntity
  8
Default
  6
Continuous
 62
     7
100
AcDbDimension
280
     0
  2
DMBLK7
 10
96.9203232723
 20
335.5211080382
 30
0.0
 11
96.9203232723
 21
343.0211078705
 31
0.0
 70
   161
  1
\A1;<>
 71
     5
 42
-1.0
 73
     0
 74
     0
 75
     0
  3
Glasprofi24
100
AcDbAlignedDimension
 13
76.7200427997
 23
335.5211080382
 33
0.0
 14
76.7200427997
 24
350.5211080382
 34
0.0
  0
DIMENSION
  5
152
330
1F
100
AcDbEntity
  8
Default
  6
Continuous
 62
     7
100
AcDbDimension
280
     0
  2
DMBLK8
 10
224.0571178751
 20
360.5202627698
 30
0.0
 11
231.5571180427
 21
360.5202627698
 31
0.0
 70
   160
  1
\A1;<>
 71
     5
 42
-1.0
 73
     0
 74
     0
 75
     0
  3
Glasprofi24
100
AcDbAlignedDimension
 13
239.0571178751
 23
335.5211080382
 33
0.0
 14
224.0571178751
 24
335.5211080382
 34
0.0
100
AcDbRotatedDimension
  0
INSERT
  5
15D
330
1F
100
AcDbEntity
  8
Default
100
AcDbBlockReference
  2
SE2
 10
0.0
 20
0.0
 30
0.0
  0
LINE
  5
1F2
330
1F
100
AcDbEntity
  8
Default
  6
Continuous
 62
     7
100
AcDbLine
 10
20.0
 20
20.0
 30
0.0
 11
574.0
 21
20.0
 31
0.0
  0
LINE
  5
1F3
330
1F
100
AcDbEntity
  8
Default
  6
Continuous
 62
     7
100
AcDbLine
 10
574.0
 20
20.0
 30
0.0
 11
574.0
 21
400.0
 31
0.0
  0
LINE
  5
1F4
330
1F
100
AcDbEntity
  8
Default
  6
Continuous
 62
     7
100
AcDbLine
 10
574.0
 20
400.0
 30
0.0
 11
20.0
 21
400.0
 31
0.0
  0
LINE
  5
1F5
330
1F
100
AcDbEntity
  8
Default
  6
Continuous
 62
     7
100
AcDbLine
 10
20.0
 20
400.0
 30
0.0
 11
20.0
 21
20.0
 31
0.0
  0
MTEXT
  5
1F6
330
1F
100
AcDbEntity
  8
Default
100
AcDbMText
 10
437.3815501924
 20
88.4677507662
 30
0.0
 40
7.0
 41
22.9709294039
 46
12.0484097126
 71
     5
 72
     1
  1
{\fSolid Edge ISO|b1||i0||c0|p34;\C7;\H7.;\W1.;A4}
 73
     1
 44
1.0
1001
ACAD
1000
ACAD_MTEXT_DEFINED_HEIGHT_BEGIN
1070
    46
1040
12.0484097126
1000
ACAD_MTEXT_DEFINED_HEIGHT_END
  0
INSERT
  5
250
330
1F
100
AcDbEntity
  8
Default
 62
     7
100
AcDbBlockReference
  2
Block1
 10
288.2724672701
 20
120.8595773
 30
0.0
  0
ENDSEC
  0
SECTION
  2
OBJECTS
  0
DICTIONARY
  5
C
330
0
100
AcDbDictionary
281
     1
  3
ACAD_DETAILVIEWSTYLE
350
258
  3
ACAD_GROUP
350
D
  3
ACAD_IMAGE_DICT
350
1FE
  3
ACAD_IMAGE_VARS
350
1FD
  3
ACAD_LAYOUT
350
1A
  3
ACAD_MATERIAL
350
43
  3
ACAD_MLEADERSTYLE
350
6B
  3
ACAD_MLINESTYLE
350
17
  3
ACAD_PLOTSETTINGS
350
19
  3
ACAD_PLOTSTYLENAME
350
E
  3
ACAD_SCALELIST
350
47
  3
ACAD_SECTIONVIEWSTYLE
350
259
  3
ACAD_TABLESTYLE
350
69
  3
ACAD_VISUALSTYLE
350
2A
  3
ACDB_RECOMPOSE_DATA
350
255
  3
AcDbVariableDictionary
350
251
  0
SUN
  5
6D
330
29
100
AcDbSun
 90
        1
290
     0
 63
     7
421
 16777215
 40
1.0
291
     1
 91
  2455826
 92
 54000000
292
     0
 70
     2
 71
   256
280
     1
  0
DICTIONARY
  5
258
102
{ACAD_REACTORS
330
C
102
}
330
C
100
AcDbDictionary
281
     1
  0
DICTIONARY
  5
D
102
{ACAD_REACTORS
330
C
102
}
330
C
100
AcDbDictionary
281
     1
  0
DICTIONARY
  5
1FE
102
{ACAD_REACTORS
330
C
102
}
330
C
100
AcDbDictionary
281
     1
  3
HD-104-400-15_EX4ZT1~U.jpg
350
203
  3
HD-104-400-15_Unbenannt.jpg
350
1FF
  0
RASTERVARIABLES
  5
1FD
102
{ACAD_REACTORS
330
C
102
}
330
C
100
AcDbRasterVariables
 90
        0
 70
     1
 71
     1
 72
     1
  0
DICTIONARY
  5
1A
102
{ACAD_REACTORS
330
C
102
}
330
C
100
AcDbDictionary
281
     1
  3
Layout1
350
1E
  3
Model
350
22
  0
DICTIONARY
  5
43
102
{ACAD_REACTORS
330
C
102
}
330
C
100
AcDbDictionary
281
     1
  3
ByBlock
350
45
  3
ByLayer
350
44
  3
Global
350
46
  0
DICTIONARY
  5
6B
102
{ACAD_REACTORS
330
C
102
}
330
C
100
AcDbDictionary
281
     1
  3
Standard
350
6C
  0
DICTIONARY
  5
17
102
{ACAD_REACTORS
330
C
102
}
330
C
100
AcDbDictionary
281
     1
  3
Standard
350
18
  0
DICTIONARY
  5
19
102
{ACAD_REACTORS
330
C
102
}
330
C
100
AcDbDictionary
281
     1
  0
ACDBDICTIONARYWDFLT
  5
E
102
{ACAD_REACTORS
330
C
102
}
330
C
100
AcDbDictionary
281
     1
  3
Normal
350
F
100
AcDbDictionaryWithDefault
340
F
  0
DICTIONARY
  5
47
102
{ACAD_REACTORS
330
C
102
}
330
C
100
AcDbDictionary
281
     1
  3
A0
350
48
  3
A1
350
49
  3
A2
350
4A
  3
A3
350
4B
  3
A4
350
4C
  3
A5
350
4D
  3
A6
350
4E
  3
A7
350
4F
  3
A8
350
50
  3
A9
350
51
  3
B0
350
52
  3
B1
350
53
  3
B2
350
54
  3
B3
350
55
  3
B4
350
56
  3
B5
350
57
  3
B6
350
58
  3
B7
350
59
  3
B8
350
5A
  3
B9
350
5B
  3
C0
350
5C
  3
C1
350
5D
  3
C2
350
5E
  3
C3
350
5F
  3
C4
350
60
  3
C5
350
61
  3
C6
350
62
  3
C7
350
63
  3
C8
350
64
  3
C9
350
65
  3
D0
350
66
  3
D1
350
67
  3
D2
350
68
  0
DICTIONARY
  5
259
102
{ACAD_REACTORS
330
C
102
}
330
C
100
AcDbDictionary
281
     1
  0
DICTIONARY
  5
69
102
{ACAD_REACTORS
330
C
102
}
330
C
100
AcDbDictionary
281
     1
  3
Standard
350
6A
  0
DICTIONARY
  5
2A
102
{ACAD_REACTORS
330
C
102
}
330
C
100
AcDbDictionary
281
     1
  3
2dWireframe
350
2F
  3
Basic
350
32
  3
Brighten
350
36
  3
ColorChange
350
3A
  3
Conceptual
350
34
  3
Dim
350
35
  3
EdgeColorOff
350
3D
  3
Facepattern
350
39
  3
Flat
350
2B
  3
FlatWithEdges
350
2C
  3
Gouraud
350
2D
  3
GouraudWithEdges
350
2E
  3
Hidden
350
31
  3
JitterOff
350
3B
  3
Linepattern
350
38
  3
OverhangOff
350
3C
  3
Realistic
350
33
  3
Shaded
350
42
  3
Shaded with edges
350
41
  3
Shades of Gray
350
3E
  3
Sketchy
350
3F
  3
Thicken
350
37
  3
Wireframe
350
30
  3
X-Ray
350
40
  0
XRECORD
  5
255
102
{ACAD_REACTORS
330
C
102
}
330
C
100
AcDbXrecord
280
     1
 90
        1
330
6A
  0
DICTIONARY
  5
251
102
{ACAD_REACTORS
330
C
102
}
330
C
100
AcDbDictionary
281
     1
  3
CANNOSCALE
350
252
  3
CMLEADERSTYLE
350
257
  3
CTABLESTYLE
350
256
  0
IMAGEDEF
  5
203
102
{ACAD_REACTORS
330
1FE
102
}
330
1FE
100
AcDbRasterImageDef
 90
        0
  1
HD-104-400-15_EX4ZT1~U.jpg
 10
2953.0
 20
940.0
 11
0.0003386386725364037
 21
0.0003386386725364037
280
     1
281
     5
  0
IMAGEDEF
  5
1FF
102
{ACAD_REACTORS
330
1FE
102
}
330
1FE
100
AcDbRasterImageDef
 90
        0
  1
HD-104-400-15_Unbenannt.jpg
 10
156.0
 20
70.0
 11
0.00641025641025641
 21
0.00641025641025641
280
     1
281
     5
  0
LAYOUT
  5
1E
102
{ACAD_REACTORS
330
1A
102
}
330
1A
100
AcDbPlotSettings
  1

  2
none_device
  4

  6

 40
0.0
 41
0.0
 42
0.0
 43
0.0
 44
0.0
 45
0.0
 46
0.0
 47
0.0
 48
0.0
 49
0.0
140
0.0
141
0.0
142
1.0
143
1.0
 70
   688
 72
     1
 73
     0
 74
     5
  7

 75
    16
 76
     0
 77
     2
 78
   300
147
1.0
148
0.0
149
0.0
100
AcDbLayout
  1
Layout1
 70
     1
 71
     1
 10
0.0
 20
0.0
 11
594.0
 21
420.0
 12
0.0
 22
0.0
 32
0.0
 14
0.0
 24
0.0
 34
0.0
 15
594.0
 25
420.0
 35
0.0
146
0.0
 13
0.0
 23
0.0
 33
0.0
 16
1.0
 26
0.0
 36
0.0
 17
0.0
 27
1.0
 37
0.0
 76
     0
330
1B
  0
LAYOUT
  5
22
102
{ACAD_REACTORS
330
1A
102
}
330
1A
100
AcDbPlotSettings
  1

  2
none_device
  4
Letter_(8.50_x_11.00_Inches)
  6

 40
6.35
 41
6.35
 42
6.35000508
 43
6.35000508
 44
215.9
 45
279.4
 46
0.0
 47
0.0
 48
0.0
 49
0.0
140
0.0
141
0.0
142
1.0
143
1.0
 70
  1712
 72
     1
 73
     0
 74
     0
  7

 75
     0
 76
     0
 77
     2
 78
   300
147
1.0
148
0.0
149
0.0
100
AcDbLayout
  1
Model
 70
     1
 71
     0
 10
0.0
 20
0.0
 11
594.0
 21
420.0
 12
0.0
 22
0.0
 32
0.0
 14
0.0
 24
0.0
 34
0.0
 15
594.0
 25
420.0
 35
0.0
146
0.0
 13
0.0
 23
0.0
 33
0.0
 16
1.0
 26
0.0
 36
0.0
 17
0.0
 27
1.0
 37
0.0
 76
     0
330
1F
331
29
  0
MATERIAL
  5
45
102
{ACAD_REACTORS
330
43
102
}
330
43
100
AcDbMaterial
  1
ByBlock
 72
     1
 94
      127
  0
MATERIAL
  5
44
102
{ACAD_REACTORS
330
43
102
}
330
43
100
AcDbMaterial
  1
ByLayer
 72
     1
 94
      127
  0
MATERIAL
  5
46
102
{ACAD_REACTORS
330
43
102
}
330
43
100
AcDbMaterial
  1
Global
 72
     1
 94
      127
  0
MLEADERSTYLE
  5
6C
102
{ACAD_REACTORS
330
6B
102
}
330
6B
100
AcDbMLeaderStyle
179
     2
170
     2
171
     1
172
     0
 90
        2
 40
0.0
 41
0.0
173
     1
 91
-1056964608
340
14
 92
       -2
290
     1
 42
2.0
291
     1
 43
8.0
  3
Standard
341
0
 44
4.0
300

342
11
174
     1
178
     6
175
     1
176
     0
 93
-1056964608
 45
4.0
292
     0
297
     0
 46
4.0
343
0
 94
-1056964608
 47
1.0
 49
1.0
140
1.0
293
     1
141
0.0
294
     1
177
     0
142
1.0
295
     0
296
     0
143
3.75
271
     0
272
     9
273
     9
298
     0
  0
MLINESTYLE
  5
18
102
{ACAD_REACTORS
330
17
102
}
330
17
100
AcDbMlineStyle
  2
Standard
 70
     0
  3

 62
   256
 51
90.0
 52
90.0
 71
     2
 49
0.5
 62
   256
  6
BYLAYER
 49
-0.5
 62
   256
  6
BYLAYER
  0
ACDBPLACEHOLDER
  5
F
102
{ACAD_REACTORS
330
E
102
}
330
E
  0
SCALE
  5
48
102
{ACAD_REACTORS
330
47
102
}
330
47
100
AcDbScale
 70
     0
300
1:1
140
1.0
141
1.0
290
     1
  0
SCALE
  5
49
102
{ACAD_REACTORS
330
47
102
}
330
47
100
AcDbScale
 70
     0
300
1:2
140
1.0
141
2.0
290
     0
  0
SCALE
  5
4A
102
{ACAD_REACTORS
330
47
102
}
330
47
100
AcDbScale
 70
     0
300
1:4
140
1.0
141
4.0
290
     0
  0
SCALE
  5
4B
102
{ACAD_REACTORS
330
47
102
}
330
47
100
AcDbScale
 70
     0
300
1:5
140
1.0
141
5.0
290
     0
  0
SCALE
  5
4C
102
{ACAD_REACTORS
330
47
102
}
330
47
100
AcDbScale
 70
     0
300
1:8
140
1.0
141
8.0
290
     0
  0
SCALE
  5
4D
102
{ACAD_REACTORS
330
47
102
}
330
47
100
AcDbScale
 70
     0
300
1:10
140
1.0
141
10.0
290
     0
  0
SCALE
  5
4E
102
{ACAD_REACTORS
330
47
102
}
330
47
100
AcDbScale
 70
     0
300
1:16
140
1.0
141
16.0
290
     0
  0
SCALE
  5
4F
102
{ACAD_REACTORS
330
47
102
}
330
47
100
AcDbScale
 70
     0
300
1:20
140
1.0
141
20.0
290
     0
  0
SCALE
  5
50
102
{ACAD_REACTORS
330
47
102
}
330
47
100
AcDbScale
 70
     0
300
1:30
140
1.0
141
30.0
290
     0
  0
SCALE
  5
51
102
{ACAD_REACTORS
330
47
102
}
330
47
100
AcDbScale
 70
     0
300
1:40
140
1.0
141
40.0
290
     0
  0
SCALE
  5
52
102
{ACAD_REACTORS
330
47
102
}
330
47
100
AcDbScale
 70
     0
300
1:50
140
1.0
141
50.0
290
     0
  0
SCALE
  5
53
102
{ACAD_REACTORS
330
47
102
}
330
47
100
AcDbScale
 70
     0
300
1:100
140
1.0
141
100.0
290
     0
  0
SCALE
  5
54
102
{ACAD_REACTORS
330
47
102
}
330
47
100
AcDbScale
 70
     0
300
2:1
140
2.0
141
1.0
290
     0
  0
SCALE
  5
55
102
{ACAD_REACTORS
330
47
102
}
330
47
100
AcDbScale
 70
     0
300
4:1
140
4.0
141
1.0
290
     0
  0
SCALE
  5
56
102
{ACAD_REACTORS
330
47
102
}
330
47
100
AcDbScale
 70
     0
300
8:1
140
8.0
141
1.0
290
     0
  0
SCALE
  5
57
102
{ACAD_REACTORS
330
47
102
}
330
47
100
AcDbScale
 70
     0
300
10:1
140
10.0
141
1.0
290
     0
  0
SCALE
  5
58
102
{ACAD_REACTORS
330
47
102
}
330
47
100
AcDbScale
 70
     0
300
100:1
140
100.0
141
1.0
290
     0
  0
SCALE
  5
59
102
{ACAD_REACTORS
330
47
102
}
330
47
100
AcDbScale
 70
     0
300
1/128" = 1'-0"
140
0.0078125
141
12.0
290
     0
  0
SCALE
  5
5A
102
{ACAD_REACTORS
330
47
102
}
330
47
100
AcDbScale
 70
     0
300
1/64" = 1'-0"
140
0.015625
141
12.0
290
     0
  0
SCALE
  5
5B
102
{ACAD_REACTORS
330
47
102
}
330
47
100
AcDbScale
 70
     0
300
1/32" = 1'-0"
140
0.03125
141
12.0
290
     0
  0
SCALE
  5
5C
102
{ACAD_REACTORS
330
47
102
}
330
47
100
AcDbScale
 70
     0
300
1/16" = 1'-0"
140
0.0625
141
12.0
290
     0
  0
SCALE
  5
5D
102
{ACAD_REACTORS
330
47
102
}
330
47
100
AcDbScale
 70
     0
300
3/32" = 1'-0"
140
0.09375
141
12.0
290
     0
  0
SCALE
  5
5E
102
{ACAD_REACTORS
330
47
102
}
330
47
100
AcDbScale
 70
     0
300
1/8" = 1'-0"
140
0.125
141
12.0
290
     0
  0
SCALE
  5
5F
102
{ACAD_REACTORS
330
47
102
}
330
47
100
AcDbScale
 70
     0
300
3/16" = 1'-0"
140
0.1875
141
12.0
290
     0
  0
SCALE
  5
60
102
{ACAD_REACTORS
330
47
102
}
330
47
100
AcDbScale
 70
     0
300
1/4" = 1'-0"
140
0.25
141
12.0
290
     0
  0
SCALE
  5
61
102
{ACAD_REACTORS
330
47
102
}
330
47
100
AcDbScale
 70
     0
300
3/8" = 1'-0"
140
0.375
141
12.0
290
     0
  0
SCALE
  5
62
102
{ACAD_REACTORS
330
47
102
}
330
47
100
AcDbScale
 70
     0
300
1/2" = 1'-0"
140
0.5
141
12.0
290
     0
  0
SCALE
  5
63
102
{ACAD_REACTORS
330
47
102
}
330
47
100
AcDbScale
 70
     0
300
3/4" = 1'-0"
140
0.75
141
12.0
290
     0
  0
SCALE
  5
64
102
{ACAD_REACTORS
330
47
102
}
330
47
100
AcDbScale
 70
     0
300
1" = 1'-0"
140
1.0
141
12.0
290
     0
  0
SCALE
  5
65
102
{ACAD_REACTORS
330
47
102
}
330
47
100
AcDbScale
 70
     0
300
1-1/2" = 1'-0"
140
1.5
141
12.0
290
     0
  0
SCALE
  5
66
102
{ACAD_REACTORS
330
47
102
}
330
47
100
AcDbScale
 70
     0
300
3" = 1'-0"
140
3.0
141
12.0
290
     0
  0
SCALE
  5
67
102
{ACAD_REACTORS
330
47
102
}
330
47
100
AcDbScale
 70
     0
300
6" = 1'-0"
140
6.0
141
12.0
290
     0
  0
SCALE
  5
68
102
{ACAD_REACTORS
330
47
102
}
330
47
100
AcDbScale
 70
     0
300
1'-0" = 1'-0"
140
12.0
141
12.0
290
     0
  0
TABLESTYLE
  5
6A
102
{ACAD_REACTORS
330
69
102
}
102
{ACAD_XDICTIONARY
360
253
102
}
330
69
100
AcDbTableStyle
  3
Standard
 70
     0
 71
     0
 40
0.06
 41
0.06
280
     0
281
     0
  7
Standard
140
4.5
170
     2
 62
     0
 63
   257
283
     0
 90
        4
 91
        0
  1

274
    -2
284
     1
 64
     0
275
    -2
285
     1
 65
     0
276
    -2
286
     1
 66
     0
277
    -2
287
     1
 67
     0
278
    -2
288
     1
 68
     0
279
    -2
289
     1
 69
     0
  7
Standard
140
6.0
170
     5
 62
     0
 63
   257
283
     0
 90
        4
 91
        0
  1

274
    -2
284
     1
 64
     0
275
    -2
285
     1
 65
     0
276
    -2
286
     1
 66
     0
277
    -2
287
     1
 67
     0
278
    -2
288
     1
 68
     0
279
    -2
289
     1
 69
     0
  7
Standard
140
4.5
170
     5
 62
     0
 63
   257
283
     0
 90
        4
 91
        0
  1

274
    -2
284
     1
 64
     0
275
    -2
285
     1
 65
     0
276
    -2
286
     1
 66
     0
277
    -2
287
     1
 67
     0
278
    -2
288
     1
 68
     0
279
    -2
289
     1
 69
     0
  0
VISUALSTYLE
  5
2F
102
{ACAD_REACTORS
330
2A
102
}
330
2A
100
AcDbVisualStyle
  2
2dWireframe
 70
     4
177
     3
291
     0
 70
    58
 90
        0
176
     1
 90
        2
176
     1
 90
        0
176
     1
 90
        0
176
     1
 40
0.6
176
     1
 40
30.0
176
     1
 62
     7
420
 16777215
176
     1
 90
        1
176
     1
 90
        4
176
     1
 62
     7
176
     1
 62
   257
176
     1
 90
        1
176
     1
 90
        1
176
     1
 40
1.0
176
     1
 90
        0
176
     1
 62
   257
176
     1
 40
1.0
176
     1
 90
        1
176
     1
 90
        6
176
     1
 90
        2
176
     1
 62
     7
176
     1
 90
        5
176
     1
 90
        0
176
     1
 90
        0
176
     1
290
     0
176
     1
 90
        1
176
     1
 40
0.0
176
     1
 90
        0
176
     1
290
     1
176
     1
290
     1
176
     1
290
     0
176
     1
290
     0
176
     1
290
     0
176
     1
290
     0
176
     1
290
     0
176
     1
290
     0
176
     1
290
     0
176
     1
 90
       50
176
     1
 40
0.0
176
     1
 40
1.0
176
     1
 90
        0
176
     1
 62
    18
420
        0
176
     1
 90
       50
176
     1
 90
        3
176
     1
 62
     5
420
      255
176
     1
290
     0
176
     1
 90
       50
176
     1
 90
       50
176
     1
 90
       50
176
     1
290
     0
176
     1
 90
       50
176
     1
 62
   256
176
     0
 40
1.0
176
     0
 90
        2
176
     1
  1
strokes_ogs.tif
176
     1
290
     0
176
     1
 40
1.0
176
     1
 40
1.0
176
     1
  0
VISUALSTYLE
  5
32
102
{ACAD_REACTORS
330
2A
102
}
330
2A
100
AcDbVisualStyle
  2
Basic
 70
     7
177
     3
291
     1
 70
    58
 90
        1
176
     1
 90
        0
176
     1
 90
        1
176
     1
 90
        0
176
     1
 40
0.6
176
     1
 40
30.0
176
     1
 62
     7
420
 16777215
176
     1
 90
        0
176
     1
 90
        4
176
     1
 62
     7
176
     1
 62
   257
176
     1
 90
        1
176
     1
 90
        1
176
     1
 40
1.0
176
     1
 90
        8
176
     1
 62
     7
176
     1
 40
1.0
176
     1
 90
        1
176
     1
 90
        6
176
     1
 90
        2
176
     1
 62
     7
176
     1
 90
        5
176
     1
 90
        0
176
     1
 90
        0
176
     1
290
     0
176
     1
 90
        1
176
     1
 40
0.0
176
     1
 90
        0
176
     1
290
     0
176
     1
290
     1
176
     1
290
     1
176
     1
290
     0
176
     1
290
     0
176
     1
290
     0
176
     1
290
     0
176
     1
290
     0
176
     1
290
     0
176
     1
 90
       50
176
     1
 40
0.0
176
     1
 40
1.0
176
     1
 90
        0
176
     1
 62
    18
420
        0
176
     1
 90
       50
176
     1
 90
        3
176
     1
 62
     5
420
      255
176
     1
290
     0
176
     1
 90
       50
176
     1
 90
       50
176
     1
 90
       50
176
     1
290
     0
176
     1
 90
       50
176
     1
 62
   256
176
     0
 40
1.0
176
     0
 90
        2
176
     1
  1
strokes_ogs.tif
176
     1
290
     0
176
     1
 40
1.0
176
     1
 40
1.0
176
     1
  0
VISUALSTYLE
  5
36
102
{ACAD_REACTORS
330
2A
102
}
330
2A
100
AcDbVisualStyle
  2
Brighten
 70
    12
177
     3
291
     1
 70
    58
 90
        2
176
     1
 90
        2
176
     1
 90
        0
176
     1
 90
        0
176
     1
 40
0.6
176
     1
 40
30.0
176
     1
 62
     7
420
 16777215
176
     1
 90
        1
176
     1
 90
        4
176
     1
 62
     7
176
     1
 62
   257
176
     1
 90
        1
176
     1
 90
        1
176
     1
 40
1.0
176
     1
 90
        8
176
     1
 62
     7
176
     1
 40
1.0
176
     1
 90
        1
176
     1
 90
        6
176
     1
 90
        2
176
     1
 62
     7
176
     1
 90
        5
176
     1
 90
        0
176
     1
 90
        0
176
     1
290
     0
176
     1
 90
        1
176
     1
 40
50.0
176
     1
 90
        0
176
     1
290
     0
176
     1
290
     1
176
     1
290
     1
176
     1
290
     0
176
     1
290
     0
176
     1
290
     0
176
     1
290
     0
176
     1
290
     0
176
     1
290
     0
176
     1
 90
       50
176
     1
 40
0.0
176
     1
 40
1.0
176
     1
 90
        0
176
     1
 62
    18
420
        0
176
     1
 90
       50
176
     1
 90
        3
176
     1
 62
     5
420
      255
176
     1
290
     0
176
     1
 90
       50
176
     1
 90
       50
176
     1
 90
       50
176
     1
290
     0
176
     1
 90
       50
176
     1
 62
   256
176
     0
 40
1.0
176
     0
 90
        2
176
     1
  1
strokes_ogs.tif
176
     1
290
     0
176
     1
 40
1.0
176
     1
 40
1.0
176
     1
  0
VISUALSTYLE
  5
3A
102
{ACAD_REACTORS
330
2A
102
}
330
2A
100
AcDbVisualStyle
  2
ColorChange
 70
    16
177
     3
291
     1
 70
    58
 90
        2
176
     1
 90
        2
176
     1
 90
        3
176
     1
 90
        0
176
     1
 40
0.6
176
     1
 40
30.0
176
     1
 62
     8
420
  8421504
176
     1
 90
        1
176
     1
 90
        4
176
     1
 62
     7
176
     1
 62
   257
176
     1
 90
        1
176
     1
 90
        1
176
     1
 40
1.0
176
     1
 90
        8
176
     1
 62
     8
420
  8421504
176
     1
 40
1.0
176
     1
 90
        1
176
     1
 90
        6
176
     1
 90
        2
176
     1
 62
     7
176
     1
 90
        5
176
     1
 90
        0
176
     1
 90
        0
176
     1
290
     0
176
     1
 90
        1
176
     1
 40
0.0
176
     1
 90
        0
176
     1
290
     0
176
     1
290
     1
176
     1
290
     1
176
     1
290
     0
176
     1
290
     0
176
     1
290
     0
176
     1
290
     0
176
     1
290
     0
176
     1
290
     0
176
     1
 90
       50
176
     1
 40
0.0
176
     1
 40
1.0
176
     1
 90
        0
176
     1
 62
    18
420
        0
176
     1
 90
       50
176
     1
 90
        3
176
     1
 62
     5
420
      255
176
     1
290
     0
176
     1
 90
       50
176
     1
 90
       50
176
     1
 90
       50
176
     1
290
     0
176
     1
 90
       50
176
     1
 62
   256
176
     0
 40
1.0
176
     0
 90
        2
176
     1
  1
strokes_ogs.tif
176
     1
290
     0
176
     1
 40
1.0
176
     1
 40
1.0
176
     1
  0
VISUALSTYLE
  5
34
102
{ACAD_REACTORS
330
2A
102
}
330
2A
100
AcDbVisualStyle
  2
Conceptual
 70
     9
177
     3
291
     0
 70
    58
 90
        3
176
     1
 90
        2
176
     1
 90
        0
176
     1
 90
        0
176
     1
 40
0.6
176
     1
 40
30.0
176
     1
 62
     7
420
 16777215
176
     1
 90
        2
176
     1
 90
        2
176
     1
 62
     7
176
     1
 62
   257
176
     1
 90
        1
176
     1
 90
        1
176
     1
 40
179.0
176
     1
 90
        8
176
     1
 62
     7
176
     1
 40
1.0
176
     1
 90
        1
176
     1
 90
        6
176
     1
 90
        2
176
     1
 62
     7
176
     1
 90
        3
176
     1
 90
        0
176
     1
 90
        0
176
     1
290
     0
176
     1
 90
        1
176
     1
 40
0.0
176
     1
 90
        0
176
     1
290
     0
176
     1
290
     1
176
     1
290
     1
176
     1
290
     0
176
     1
290
     0
176
     1
290
     0
176
     1
290
     0
176
     1
290
     0
176
     1
290
     0
176
     1
 90
       50
176
     1
 40
0.0
176
     1
 40
1.0
176
     1
 90
        0
176
     1
 62
    18
420
        0
176
     1
 90
       50
176
     1
 90
        3
176
     1
 62
     5
420
      255
176
     1
290
     0
176
     1
 90
       50
176
     1
 90
       50
176
     1
 90
       50
176
     1
290
     0
176
     1
 90
       50
176
     1
 62
   256
176
     0
 40
1.0
176
     0
 90
        2
176
     1
  1
strokes_ogs.tif
176
     1
290
     0
176
     1
 40
1.0
176
     1
 40
1.0
176
     1
  0
VISUALSTYLE
  5
35
102
{ACAD_REACTORS
330
2A
102
}
330
2A
100
AcDbVisualStyle
  2
Dim
 70
    11
177
     3
291
     1
 70
    58
 90
        2
176
     1
 90
        2
176
     1
 90
        0
176
     1
 90
        0
176
     1
 40
0.6
176
     1
 40
30.0
176
     1
 62
     7
420
 16777215
176
     1
 90
        1
176
     1
 90
        4
176
     1
 62
     7
176
     1
 62
   257
176
     1
 90
        1
176
     1
 90
        1
176
     1
 40
1.0
176
     1
 90
        8
176
     1
 62
     7
176
     1
 40
1.0
176
     1
 90
        1
176
     1
 90
        6
176
     1
 90
        2
176
     1
 62
     7
176
     1
 90
        5
176
     1
 90
        0
176
     1
 90
        0
176
     1
290
     0
176
     1
 90
        1
176
     1
 40
-50.0
176
     1
 90
        0
176
     1
290
     0
176
     1
290
     1
176
     1
290
     1
176
     1
290
     0
176
     1
290
     0
176
     1
290
     0
176
     1
290
     0
176
     1
290
     0
176
     1
290
     0
176
     1
 90
       50
176
     1
 40
0.0
176
     1
 40
1.0
176
     1
 90
        0
176
     1
 62
    18
420
        0
176
     1
 90
       50
176
     1
 90
        3
176
     1
 62
     5
420
      255
176
     1
290
     0
176
     1
 90
       50
176
     1
 90
       50
176
     1
 90
       50
176
     1
290
     0
176
     1
 90
       50
176
     1
 62
   256
176
     0
 40
1.0
176
     0
 90
        2
176
     1
  1
strokes_ogs.tif
176
     1
290
     0
176
     1
 40
1.0
176
     1
 40
1.0
176
     1
  0
VISUALSTYLE
  5
3D
102
{ACAD_REACTORS
330
2A
102
}
330
2A
100
AcDbVisualStyle
  2
EdgeColorOff
 70
    22
177
     3
291
     1
 70
    58
 90
        2
176
     0
 90
        2
176
     0
 90
        0
176
     0
 90
        0
176
     0
 40
0.6
176
     0
 40
30.0
176
     0
 62
     7
420
 16777215
176
     0
 90
        1
176
     0
 90
        4
176
     0
 62
     7
176
     0
 62
   257
176
     0
 90
        1
176
     0
 90
        1
176
     0
 40
1.0
176
     0
 90
        8
176
     2
 62
     7
176
     0
 40
1.0
176
     0
 90
        1
176
     0
 90
        6
176
     0
 90
        2
176
     0
 62
     7
176
     0
 90
        5
176
     0
 90
        0
176
     0
 90
        0
176
     0
290
     0
176
     0
 90
        1
176
     0
 40
0.0
176
     0
 90
        0
176
     0
290
     0
176
     0
290
     1
176
     0
290
     1
176
     0
290
     0
176
     0
290
     0
176
     0
290
     0
176
     0
290
     0
176
     0
290
     0
176
     0
290
     0
176
     0
 90
       50
176
     0
 40
0.0
176
     0
 40
1.0
176
     0
 90
        0
176
     0
 62
    18
420
        0
176
     0
 90
       50
176
     0
 90
        3
176
     0
 62
     5
420
      255
176
     0
290
     0
176
     0
 90
       50
176
     0
 90
       50
176
     0
 90
       50
176
     0
290
     0
176
     0
 90
       50
176
     0
 62
   256
176
     0
 40
1.0
176
     0
 90
        2
176
     0
  1
strokes_ogs.tif
176
     0
290
     0
176
     0
 40
1.0
176
     0
 40
1.0
176
     0
  0
VISUALSTYLE
  5
39
102
{ACAD_REACTORS
330
2A
102
}
330
2A
100
AcDbVisualStyle
  2
Facepattern
 70
    15
177
     3
291
     1
 70
    58
 90
        2
176
     1
 90
        2
176
     1
 90
        0
176
     1
 90
        0
176
     1
 40
0.6
176
     1
 40
30.0
176
     1
 62
     7
420
 16777215
176
     1
 90
        1
176
     1
 90
        4
176
     1
 62
     7
176
     1
 62
   257
176
     1
 90
        1
176
     1
 90
        1
176
     1
 40
1.0
176
     1
 90
        8
176
     1
 62
     7
176
     1
 40
1.0
176
     1
 90
        1
176
     1
 90
        6
176
     1
 90
        2
176
     1
 62
     7
176
     1
 90
        5
176
     1
 90
        0
176
     1
 90
        0
176
     1
290
     0
176
     1
 90
        1
176
     1
 40
0.0
176
     1
 90
        0
176
     1
290
     0
176
     1
290
     1
176
     1
290
     1
176
     1
290
     0
176
     1
290
     0
176
     1
290
     0
176
     1
290
     0
176
     1
290
     0
176
     1
290
     0
176
     1
 90
       50
176
     1
 40
0.0
176
     1
 40
1.0
176
     1
 90
        0
176
     1
 62
    18
420
        0
176
     1
 90
       50
176
     1
 90
        3
176
     1
 62
     5
420
      255
176
     1
290
     0
176
     1
 90
       50
176
     1
 90
       50
176
     1
 90
       50
176
     1
290
     0
176
     1
 90
       50
176
     1
 62
   256
176
     0
 40
1.0
176
     0
 90
        2
176
     1
  1
strokes_ogs.tif
176
     1
290
     0
176
     1
 40
1.0
176
     1
 40
1.0
176
     1
  0
VISUALSTYLE
  5
2B
102
{ACAD_REACTORS
330
2A
102
}
330
2A
100
AcDbVisualStyle
  2
Flat
 70
     0
177
     3
291
     1
 70
    58
 90
        2
176
     1
 90
        1
176
     1
 90
        1
176
     1
 90
        2
176
     1
 40
0.6
176
     1
 40
30.0
176
     1
 62
     7
420
 16777215
176
     1
 90
        0
176
     1
 90
        0
176
     1
 62
     7
176
     1
 62
   257
176
     1
 90
        1
176
     1
 90
        1
176
     1
 40
1.0
176
     1
 90
        8
176
     1
 62
     7
176
     1
 40
1.0
176
     1
 90
        1
176
     1
 90
        6
176
     1
 90
        2
176
     1
 62
     7
176
     1
 90
        5
176
     1
 90
        0
176
     1
 90
        0
176
     1
290
     0
176
     1
 90
       13
176
     1
 40
0.0
176
     1
 90
        0
176
     1
290
     0
176
     1
290
     1
176
     1
290
     1
176
     1
290
     0
176
     1
290
     0
176
     1
290
     0
176
     1
290
     0
176
     1
290
     0
176
     1
290
     0
176
     1
 90
       50
176
     1
 40
0.0
176
     1
 40
1.0
176
     1
 90
        0
176
     1
 62
    18
420
        0
176
     1
 90
       50
176
     1
 90
        3
176
     1
 62
     5
420
      255
176
     1
290
     0
176
     1
 90
       50
176
     1
 90
       50
176
     1
 90
       50
176
     1
290
     0
176
     1
 90
       50
176
     1
 62
   256
176
     0
 40
1.0
176
     0
 90
        2
176
     1
  1
strokes_ogs.tif
176
     1
290
     0
176
     1
 40
1.0
176
     1
 40
1.0
176
     1
  0
VISUALSTYLE
  5
2C
102
{ACAD_REACTORS
330
2A
102
}
330
2A
100
AcDbVisualStyle
  2
FlatWithEdges
 70
     1
177
     3
291
     1
 70
    58
 90
        2
176
     1
 90
        1
176
     1
 90
        1
176
     1
 90
        2
176
     1
 40
0.6
176
     1
 40
30.0
176
     1
 62
     7
420
 16777215
176
     1
 90
        1
176
     1
 90
        0
176
     1
 62
     7
176
     1
 62
   257
176
     1
 90
        1
176
     1
 90
        1
176
     1
 40
1.0
176
     1
 90
        0
176
     1
 62
   257
176
     1
 40
1.0
176
     1
 90
        1
176
     1
 90
        6
176
     1
 90
        2
176
     1
 62
     7
176
     1
 90
        5
176
     1
 90
        0
176
     1
 90
        0
176
     1
290
     0
176
     1
 90
       13
176
     1
 40
0.0
176
     1
 90
        0
176
     1
290
     0
176
     1
290
     1
176
     1
290
     1
176
     1
290
     0
176
     1
290
     0
176
     1
290
     0
176
     1
290
     0
176
     1
290
     0
176
     1
290
     0
176
     1
 90
       50
176
     1
 40
0.0
176
     1
 40
1.0
176
     1
 90
        0
176
     1
 62
    18
420
        0
176
     1
 90
       50
176
     1
 90
        3
176
     1
 62
     5
420
      255
176
     1
290
     0
176
     1
 90
       50
176
     1
 90
       50
176
     1
 90
       50
176
     1
290
     0
176
     1
 90
       50
176
     1
 62
   256
176
     0
 40
1.0
176
     0
 90
        2
176
     1
  1
strokes_ogs.tif
176
     1
290
     0
176
     1
 40
1.0
176
     1
 40
1.0
176
     1
  0
VISUALSTYLE
  5
2D
102
{ACAD_REACTORS
330
2A
102
}
330
2A
100
AcDbVisualStyle
  2
Gouraud
 70
     2
177
     3
291
     1
 70
    58
 90
        2
176
     1
 90
        2
176
     1
 90
        1
176
     1
 90
        2
176
     1
 40
0.6
176
     1
 40
30.0
176
     1
 62
     7
420
 16777215
176
     1
 90
        0
176
     1
 90
        0
176
     1
 62
     7
176
     1
 62
   257
176
     1
 90
        1
176
     1
 90
        1
176
     1
 40
1.0
176
     1
 90
        0
176
     1
 62
     7
176
     1
 40
1.0
176
     1
 90
        1
176
     1
 90
        6
176
     1
 90
        2
176
     1
 62
     7
176
     1
 90
        5
176
     1
 90
        0
176
     1
 90
        0
176
     1
290
     0
176
     1
 90
       13
176
     1
 40
0.0
176
     1
 90
        0
176
     1
290
     0
176
     1
290
     1
176
     1
290
     1
176
     1
290
     0
176
     1
290
     0
176
     1
290
     0
176
     1
290
     0
176
     1
290
     0
176
     1
290
     0
176
     1
 90
       50
176
     1
 40
0.0
176
     1
 40
1.0
176
     1
 90
        0
176
     1
 62
    18
420
        0
176
     1
 90
       50
176
     1
 90
        3
176
     1
 62
     5
420
      255
176
     1
290
     0
176
     1
 90
       50
176
     1
 90
       50
176
     1
 90
       50
176
     1
290
     0
176
     1
 90
       50
176
     1
 62
   256
176
     0
 40
1.0
176
     0
 90
        2
176
     1
  1
strokes_ogs.tif
176
     1
290
     0
176
     1
 40
1.0
176
     1
 40
1.0
176
     1
  0
VISUALSTYLE
  5
2E
102
{ACAD_REACTORS
330
2A
102
}
330
2A
100
AcDbVisualStyle
  2
GouraudWithEdges
 70
     3
177
     3
291
     1
 70
    58
 90
        2
176
     1
 90
        2
176
     1
 90
        1
176
     1
 90
        2
176
     1
 40
0.6
176
     1
 40
30.0
176
     1
 62
     7
420
 16777215
176
     1
 90
        1
176
     1
 90
        0
176
     1
 62
     7
176
     1
 62
   257
176
     1
 90
        1
176
     1
 90
        1
176
     1
 40
1.0
176
     1
 90
        0
176
     1
 62
   257
176
     1
 40
1.0
176
     1
 90
        1
176
     1
 90
        6
176
     1
 90
        2
176
     1
 62
     7
176
     1
 90
        5
176
     1
 90
        0
176
     1
 90
        0
176
     1
290
     0
176
     1
 90
       13
176
     1
 40
0.0
176
     1
 90
        0
176
     1
290
     0
176
     1
290
     1
176
     1
290
     1
176
     1
290
     0
176
     1
290
     0
176
     1
290
     0
176
     1
290
     0
176
     1
290
     0
176
     1
290
     0
176
     1
 90
       50
176
     1
 40
0.0
176
     1
 40
1.0
176
     1
 90
        0
176
     1
 62
    18
420
        0
176
     1
 90
       50
176
     1
 90
        3
176
     1
 62
     5
420
      255
176
     1
290
     0
176
     1
 90
       50
176
     1
 90
       50
176
     1
 90
       50
176
     1
290
     0
176
     1
 90
       50
176
     1
 62
   256
176
     0
 40
1.0
176
     0
 90
        2
176
     1
  1
strokes_ogs.tif
176
     1
290
     0
176
     1
 40
1.0
176
     1
 40
1.0
176
     1
  0
VISUALSTYLE
  5
31
102
{ACAD_REACTORS
330
2A
102
}
330
2A
100
AcDbVisualStyle
  2
Hidden
 70
     6
177
     3
291
     0
 70
    58
 90
        1
176
     1
 90
        2
176
     1
 90
        2
176
     1
 90
        0
176
     1
 40
0.6
176
     1
 40
30.0
176
     1
 62
     7
420
 16777215
176
     1
 90
        2
176
     1
 90
        2
176
     1
 62
     7
176
     1
 62
   257
176
     1
 90
        2
176
     1
 90
        1
176
     1
 40
40.0
176
     1
 90
        0
176
     1
 62
   257
176
     1
 40
1.0
176
     1
 90
        1
176
     1
 90
        6
176
     1
 90
        2
176
     1
 62
     7
176
     1
 90
        3
176
     1
 90
        0
176
     1
 90
        0
176
     1
290
     0
176
     1
 90
        1
176
     1
 40
0.0
176
     1
 90
        0
176
     1
290
     0
176
     1
290
     1
176
     1
290
     1
176
     1
290
     0
176
     1
290
     0
176
     1
290
     0
176
     1
290
     0
176
     1
290
     0
176
     1
290
     0
176
     1
 90
       50
176
     1
 40
0.0
176
     1
 40
1.0
176
     1
 90
        0
176
     1
 62
    18
420
        0
176
     1
 90
       50
176
     1
 90
        3
176
     1
 62
     5
420
      255
176
     1
290
     0
176
     1
 90
       50
176
     1
 90
       50
176
     1
 90
       50
176
     1
290
     0
176
     1
 90
       50
176
     1
 62
   256
176
     0
 40
1.0
176
     0
 90
        2
176
     1
  1
strokes_ogs.tif
176
     1
290
     0
176
     1
 40
1.0
176
     1
 40
1.0
176
     1
  0
VISUALSTYLE
  5
3B
102
{ACAD_REACTORS
330
2A
102
}
330
2A
100
AcDbVisualStyle
  2
JitterOff
 70
    20
177
     3
291
     1
 70
    58
 90
        2
176
     0
 90
        2
176
     0
 90
        0
176
     0
 90
        0
176
     0
 40
0.6
176
     0
 40
30.0
176
     0
 62
     7
420
 16777215
176
     0
 90
        1
176
     0
 90
        4
176
     0
 62
     7
176
     0
 62
   257
176
     0
 90
        1
176
     0
 90
        1
176
     0
 40
1.0
176
     0
 90
       10
176
     2
 62
     7
176
     0
 40
1.0
176
     0
 90
        1
176
     0
 90
        6
176
     0
 90
        2
176
     0
 62
     7
176
     0
 90
        5
176
     0
 90
        0
176
     0
 90
        0
176
     0
290
     0
176
     0
 90
        1
176
     0
 40
0.0
176
     0
 90
        0
176
     0
290
     0
176
     0
290
     1
176
     0
290
     1
176
     0
290
     0
176
     0
290
     0
176
     0
290
     0
176
     0
290
     0
176
     0
290
     0
176
     0
290
     0
176
     0
 90
       50
176
     0
 40
0.0
176
     0
 40
1.0
176
     0
 90
        0
176
     0
 62
    18
420
        0
176
     0
 90
       50
176
     0
 90
        3
176
     0
 62
     5
420
      255
176
     0
290
     0
176
     0
 90
       50
176
     0
 90
       50
176
     0
 90
       50
176
     0
290
     0
176
     0
 90
       50
176
     0
 62
   256
176
     0
 40
1.0
176
     0
 90
        2
176
     0
  1
strokes_ogs.tif
176
     0
290
     0
176
     0
 40
1.0
176
     0
 40
1.0
176
     0
  0
VISUALSTYLE
  5
38
102
{ACAD_REACTORS
330
2A
102
}
330
2A
100
AcDbVisualStyle
  2
Linepattern
 70
    14
177
     3
291
     1
 70
    58
 90
        2
176
     1
 90
        2
176
     1
 90
        0
176
     1
 90
        0
176
     1
 40
0.6
176
     1
 40
30.0
176
     1
 62
     7
420
 16777215
176
     1
 90
        1
176
     1
 90
        4
176
     1
 62
     7
176
     1
 62
   257
176
     1
 90
        7
176
     1
 90
        7
176
     1
 40
1.0
176
     1
 90
        8
176
     1
 62
     7
176
     1
 40
1.0
176
     1
 90
        1
176
     1
 90
        6
176
     1
 90
        2
176
     1
 62
     7
176
     1
 90
        5
176
     1
 90
        0
176
     1
 90
        0
176
     1
290
     0
176
     1
 90
        1
176
     1
 40
0.0
176
     1
 90
        0
176
     1
290
     0
176
     1
290
     1
176
     1
290
     1
176
     1
290
     0
176
     1
290
     0
176
     1
290
     0
176
     1
290
     0
176
     1
290
     0
176
     1
290
     0
176
     1
 90
       50
176
     1
 40
0.0
176
     1
 40
1.0
176
     1
 90
        0
176
     1
 62
    18
420
        0
176
     1
 90
       50
176
     1
 90
        3
176
     1
 62
     5
420
      255
176
     1
290
     0
176
     1
 90
       50
176
     1
 90
       50
176
     1
 90
       50
176
     1
290
     0
176
     1
 90
       50
176
     1
 62
   256
176
     0
 40
1.0
176
     0
 90
        2
176
     1
  1
strokes_ogs.tif
176
     1
290
     0
176
     1
 40
1.0
176
     1
 40
1.0
176
     1
  0
VISUALSTYLE
  5
3C
102
{ACAD_REACTORS
330
2A
102
}
330
2A
100
AcDbVisualStyle
  2
OverhangOff
 70
    21
177
     3
291
     1
 70
    58
 90
        2
176
     0
 90
        2
176
     0
 90
        0
176
     0
 90
        0
176
     0
 40
0.6
176
     0
 40
30.0
176
     0
 62
     7
420
 16777215
176
     0
 90
        1
176
     0
 90
        4
176
     0
 62
     7
176
     0
 62
   257
176
     0
 90
        1
176
     0
 90
        1
176
     0
 40
1.0
176
     0
 90
        9
176
     2
 62
     7
176
     0
 40
1.0
176
     0
 90
        1
176
     0
 90
        6
176
     0
 90
        2
176
     0
 62
     7
176
     0
 90
        5
176
     0
 90
        0
176
     0
 90
        0
176
     0
290
     0
176
     0
 90
        1
176
     0
 40
0.0
176
     0
 90
        0
176
     0
290
     0
176
     0
290
     1
176
     0
290
     1
176
     0
290
     0
176
     0
290
     0
176
     0
290
     0
176
     0
290
     0
176
     0
290
     0
176
     0
290
     0
176
     0
 90
       50
176
     0
 40
0.0
176
     0
 40
1.0
176
     0
 90
        0
176
     0
 62
    18
420
        0
176
     0
 90
       50
176
     0
 90
        3
176
     0
 62
     5
420
      255
176
     0
290
     0
176
     0
 90
       50
176
     0
 90
       50
176
     0
 90
       50
176
     0
290
     0
176
     0
 90
       50
176
     0
 62
   256
176
     0
 40
1.0
176
     0
 90
        2
176
     0
  1
strokes_ogs.tif
176
     0
290
     0
176
     0
 40
1.0
176
     0
 40
1.0
176
     0
  0
VISUALSTYLE
  5
33
102
{ACAD_REACTORS
330
2A
102
}
330
2A
100
AcDbVisualStyle
  2
Realistic
 70
     8
177
     3
291
     0
 70
    58
 90
        2
176
     1
 90
        3
176
     1
 90
        0
176
     1
 90
        2
176
     1
 40
0.6
176
     1
 40
30.0
176
     1
 62
     7
420
 16777215
176
     1
 90
        0
176
     1
 90
        0
176
     1
 62
     7
176
     1
 62
   257
176
     1
 90
        1
176
     1
 90
        1
176
     1
 40
1.0
176
     1
 90
        8
176
     1
 62
   257
176
     1
 40
1.0
176
     1
 90
        1
176
     1
 90
        6
176
     1
 90
        2
176
     1
 62
     7
176
     1
 90
        3
176
     1
 90
        0
176
     1
 90
        0
176
     1
290
     0
176
     1
 90
       13
176
     1
 40
0.0
176
     1
 90
        0
176
     1
290
     0
176
     1
290
     1
176
     1
290
     1
176
     1
290
     0
176
     1
290
     0
176
     1
290
     0
176
     1
290
     0
176
     1
290
     0
176
     1
290
     0
176
     1
 90
       50
176
     1
 40
0.0
176
     1
 40
1.0
176
     1
 90
        0
176
     1
 62
    18
420
        0
176
     1
 90
       50
176
     1
 90
        3
176
     1
 62
     5
420
      255
176
     1
290
     0
176
     1
 90
       50
176
     1
 90
       50
176
     1
 90
       50
176
     1
290
     0
176
     1
 90
       50
176
     1
 62
   256
176
     0
 40
1.0
176
     0
 90
        2
176
     1
  1
strokes_ogs.tif
176
     1
290
     0
176
     1
 40
1.0
176
     1
 40
1.0
176
     1
  0
VISUALSTYLE
  5
42
102
{ACAD_REACTORS
330
2A
102
}
330
2A
100
AcDbVisualStyle
  2
Shaded
 70
    27
177
     3
291
     0
 70
    58
 90
        2
176
     1
 90
        2
176
     1
 90
        1
176
     1
 90
        2
176
     1
 40
0.6
176
     1
 40
30.0
176
     1
 62
     7
420
 16777215
176
     1
 90
        0
176
     1
 90
        4
176
     1
 62
     7
176
     1
 62
   257
176
     1
 90
        1
176
     1
 90
        1
176
     1
 40
1.0
176
     1
 90
        8
176
     1
 62
   257
176
     1
 40
1.0
176
     1
 90
        1
176
     1
 90
        6
176
     1
 90
        2
176
     1
 62
     8
420
  7895160
176
     1
 90
        3
176
     1
 90
        0
176
     1
 90
        0
176
     1
290
     0
176
     1
 90
        5
176
     1
 40
0.0
176
     1
 90
        0
176
     1
290
     0
176
     1
290
     1
176
     1
290
     1
176
     1
290
     0
176
     1
290
     0
176
     1
290
     0
176
     1
290
     0
176
     1
290
     0
176
     1
290
     0
176
     1
 90
       50
176
     1
 40
0.0
176
     1
 40
1.0
176
     1
 90
        0
176
     1
 62
    18
420
        0
176
     1
 90
       50
176
     1
 90
        3
176
     1
 62
     5
420
      255
176
     1
290
     0
176
     1
 90
       50
176
     1
 90
       50
176
     1
 90
       50
176
     1
290
     0
176
     1
 90
       50
176
     1
 62
   256
176
     0
 40
1.0
176
     0
 90
        2
176
     1
  1
strokes_ogs.tif
176
     1
290
     0
176
     1
 40
1.0
176
     1
 40
1.0
176
     1
  0
VISUALSTYLE
  5
41
102
{ACAD_REACTORS
330
2A
102
}
330
2A
100
AcDbVisualStyle
  2
Shaded with edges
 70
    26
177
     3
291
     0
 70
    58
 90
        2
176
     1
 90
        2
176
     1
 90
        1
176
     1
 90
        2
176
     1
 40
0.6
176
     1
 40
30.0
176
     1
 62
     7
420
 16777215
176
     1
 90
        1
176
     1
 90
       10
176
     1
 62
     7
176
     1
 62
   257
176
     1
 90
        2
176
     1
 90
        1
176
     1
 40
1.0
176
     1
 90
        8
176
     1
 62
   257
176
     1
 40
1.0
176
     1
 90
        1
176
     1
 90
        6
176
     1
 90
        2
176
     1
 62
     7
176
     1
 90
        3
176
     1
 90
        0
176
     1
 90
        0
176
     1
290
     0
176
     1
 90
        5
176
     1
 40
0.0
176
     1
 90
        0
176
     1
290
     0
176
     1
290
     1
176
     1
290
     1
176
     1
290
     0
176
     1
290
     0
176
     1
290
     0
176
     1
290
     0
176
     1
290
     0
176
     1
290
     0
176
     1
 90
       50
176
     1
 40
0.0
176
     1
 40
1.0
176
     1
 90
        0
176
     1
 62
    18
420
        0
176
     1
 90
       50
176
     1
 90
        3
176
     1
 62
     5
420
      255
176
     1
290
     0
176
     1
 90
       50
176
     1
 90
       50
176
     1
 90
       50
176
     1
290
     0
176
     1
 90
       50
176
     1
 62
   256
176
     0
 40
1.0
176
     0
 90
        2
176
     1
  1
strokes_ogs.tif
176
     1
290
     0
176
     1
 40
1.0
176
     1
 40
1.0
176
     1
  0
VISUALSTYLE
  5
3E
102
{ACAD_REACTORS
330
2A
102
}
330
2A
100
AcDbVisualStyle
  2
Shades of Gray
 70
    23
177
     3
291
     0
 70
    58
 90
        2
176
     1
 90
        2
176
     1
 90
        3
176
     1
 90
        0
176
     1
 40
0.6
176
     1
 40
30.0
176
     1
 62
     7
420
 16777215
176
     1
 90
        2
176
     1
 90
        2
176
     1
 62
     7
176
     1
 62
     7
176
     1
 90
        1
176
     1
 90
        1
176
     1
 40
40.0
176
     1
 90
        8
176
     1
 62
     7
176
     1
 40
1.0
176
     1
 90
        1
176
     1
 90
        6
176
     1
 90
        2
176
     1
 62
     7
176
     1
 90
        3
176
     1
 90
        0
176
     1
 90
        0
176
     1
290
     0
176
     1
 90
        1
176
     1
 40
0.0
176
     1
 90
        0
176
     1
290
     0
176
     1
290
     1
176
     1
290
     1
176
     1
290
     0
176
     1
290
     0
176
     1
290
     0
176
     1
290
     0
176
     1
290
     0
176
     1
290
     0
176
     1
 90
       50
176
     1
 40
0.0
176
     1
 40
1.0
176
     1
 90
        0
176
     1
 62
    18
420
        0
176
     1
 90
       50
176
     1
 90
        3
176
     1
 62
     5
420
      255
176
     1
290
     0
176
     1
 90
       50
176
     1
 90
       50
176
     1
 90
       50
176
     1
290
     0
176
     1
 90
       50
176
     1
 62
   256
176
     0
 40
1.0
176
     0
 90
        2
176
     1
  1
strokes_ogs.tif
176
     1
290
     0
176
     1
 40
1.0
176
     1
 40
1.0
176
     1
  0
VISUALSTYLE
  5
3F
102
{ACAD_REACTORS
330
2A
102
}
330
2A
100
AcDbVisualStyle
  2
Sketchy
 70
    24
177
     3
291
     0
 70
    58
 90
        1
176
     1
 90
        2
176
     1
 90
        2
176
     1
 90
        0
176
     1
 40
0.6
176
     1
 40
30.0
176
     1
 62
     7
420
 16777215
176
     1
 90
        2
176
     1
 90
        2
176
     1
 62
     7
176
     1
 62
     7
176
     1
 90
        1
176
     1
 90
        1
176
     1
 40
40.0
176
     1
 90
       11
176
     1
 62
     7
176
     1
 40
1.0
176
     1
 90
        1
176
     1
 90
        6
176
     1
 90
        2
176
     1
 62
     7
176
     1
 90
        6
176
     1
 90
        0
176
     1
 90
        0
176
     1
290
     0
176
     1
 90
        1
176
     1
 40
0.0
176
     1
 90
        0
176
     1
290
     0
176
     1
290
     1
176
     1
290
     1
176
     1
290
     0
176
     1
290
     0
176
     1
290
     0
176
     1
290
     0
176
     1
290
     0
176
     1
290
     0
176
     1
 90
       50
176
     1
 40
0.0
176
     1
 40
1.0
176
     1
 90
        0
176
     1
 62
    18
420
        0
176
     1
 90
       50
176
     1
 90
        3
176
     1
 62
     5
420
      255
176
     1
290
     0
176
     1
 90
       50
176
     1
 90
       50
176
     1
 90
       50
176
     1
290
     0
176
     1
 90
       50
176
     1
 62
   256
176
     0
 40
1.0
176
     0
 90
        2
176
     1
  1
strokes_ogs.tif
176
     1
290
     0
176
     1
 40
1.0
176
     1
 40
1.0
176
     1
  0
VISUALSTYLE
  5
37
102
{ACAD_REACTORS
330
2A
102
}
330
2A
100
AcDbVisualStyle
  2
Thicken
 70
    13
177
     3
291
     1
 70
    58
 90
        2
176
     1
 90
        2
176
     1
 90
        0
176
     1
 90
        0
176
     1
 40
0.6
176
     1
 40
30.0
176
     1
 62
     7
420
 16777215
176
     1
 90
        1
176
     1
 90
        4
176
     1
 62
     7
176
     1
 62
   257
176
     1
 90
        1
176
     1
 90
        1
176
     1
 40
1.0
176
     1
 90
       12
176
     1
 62
     7
176
     1
 40
1.0
176
     1
 90
        1
176
     1
 90
        6
176
     1
 90
        2
176
     1
 62
     7
176
     1
 90
        5
176
     1
 90
        0
176
     1
 90
        0
176
     1
290
     0
176
     1
 90
        1
176
     1
 40
0.0
176
     1
 90
        0
176
     1
290
     0
176
     1
290
     1
176
     1
290
     1
176
     1
290
     0
176
     1
290
     0
176
     1
290
     0
176
     1
290
     0
176
     1
290
     0
176
     1
290
     0
176
     1
 90
       50
176
     1
 40
0.0
176
     1
 40
1.0
176
     1
 90
        0
176
     1
 62
    18
420
        0
176
     1
 90
       50
176
     1
 90
        3
176
     1
 62
     5
420
      255
176
     1
290
     0
176
     1
 90
       50
176
     1
 90
       50
176
     1
 90
       50
176
     1
290
     0
176
     1
 90
       50
176
     1
 62
   256
176
     0
 40
1.0
176
     0
 90
        2
176
     1
  1
strokes_ogs.tif
176
     1
290
     0
176
     1
 40
1.0
176
     1
 40
1.0
176
     1
  0
VISUALSTYLE
  5
30
102
{ACAD_REACTORS
330
2A
102
}
330
2A
100
AcDbVisualStyle
  2
Wireframe
 70
     5
177
     3
291
     0
 70
    58
 90
        0
176
     1
 90
        2
176
     1
 90
        0
176
     1
 90
        0
176
     1
 40
0.6
176
     1
 40
30.0
176
     1
 62
     7
420
 16777215
176
     1
 90
        1
176
     1
 90
        4
176
     1
 62
     7
176
     1
 62
   257
176
     1
 90
        1
176
     1
 90
        1
176
     1
 40
1.0
176
     1
 90
        0
176
     1
 62
   257
176
     1
 40
1.0
176
     1
 90
        1
176
     1
 90
        6
176
     1
 90
        2
176
     1
 62
     7
176
     1
 90
        3
176
     1
 90
        0
176
     1
 90
        0
176
     1
290
     0
176
     1
 90
        1
176
     1
 40
0.0
176
     1
 90
        0
176
     1
290
     0
176
     1
290
     1
176
     1
290
     1
176
     1
290
     0
176
     1
290
     0
176
     1
290
     0
176
     1
290
     0
176
     1
290
     0
176
     1
290
     0
176
     1
 90
       50
176
     1
 40
0.0
176
     1
 40
1.0
176
     1
 90
        0
176
     1
 62
    18
420
        0
176
     1
 90
       50
176
     1
 90
        3
176
     1
 62
     5
420
      255
176
     1
290
     0
176
     1
 90
       50
176
     1
 90
       50
176
     1
 90
       50
176
     1
290
     0
176
     1
 90
       50
176
     1
 62
   256
176
     0
 40
1.0
176
     0
 90
        2
176
     1
  1
strokes_ogs.tif
176
     1
290
     0
176
     1
 40
1.0
176
     1
 40
1.0
176
     1
  0
VISUALSTYLE
  5
40
102
{ACAD_REACTORS
330
2A
102
}
330
2A
100
AcDbVisualStyle
  2
X-Ray
 70
    25
177
     3
291
     0
 70
    58
 90
        2
176
     1
 90
        2
176
     1
 90
        1
176
     1
 90
        1
176
     1
 40
0.5
176
     1
 40
30.0
176
     1
 62
     7
420
 16777215
176
     1
 90
        1
176
     1
 90
        0
176
     1
 62
     7
176
     1
 62
   257
176
     1
 90
        1
176
     1
 90
        1
176
     1
 40
1.0
176
     1
 90
        8
176
     1
 62
     7
176
     1
 40
1.0
176
     1
 90
        1
176
     1
 90
        6
176
     1
 90
        2
176
     1
 62
     7
176
     1
 90
        3
176
     1
 90
        0
176
     1
 90
        0
176
     1
290
     0
176
     1
 90
       13
176
     1
 40
0.0
176
     1
 90
        0
176
     1
290
     0
176
     1
290
     1
176
     1
290
     1
176
     1
290
     0
176
     1
290
     0
176
     1
290
     0
176
     1
290
     0
176
     1
290
     0
176
     1
290
     0
176
     1
 90
       50
176
     1
 40
0.0
176
     1
 40
1.0
176
     1
 90
        0
176
     1
 62
    18
420
        0
176
     1
 90
       50
176
     1
 90
        3
176
     1
 62
     5
420
      255
176
     1
290
     0
176
     1
 90
       50
176
     1
 90
       50
176
     1
 90
       50
176
     1
290
     0
176
     1
 90
       50
176
     1
 62
   256
176
     0
 40
1.0
176
     0
 90
        2
176
     1
  1
strokes_ogs.tif
176
     1
290
     0
176
     1
 40
1.0
176
     1
 40
1.0
176
     1
  0
DICTIONARYVAR
  5
252
102
{ACAD_REACTORS
330
251
102
}
330
251
100
DictionaryVariables
280
     0
  1
1:1
  0
DICTIONARYVAR
  5
257
102
{ACAD_REACTORS
330
251
102
}
330
251
100
DictionaryVariables
280
     0
  1
Standard
  0
DICTIONARYVAR
  5
256
102
{ACAD_REACTORS
330
251
102
}
330
251
100
DictionaryVariables
280
     0
  1
Standard
  0
DICTIONARY
  5
253
330
6A
100
AcDbDictionary
280
     1
281
     1
  3
ACAD_ROUNDTRIP_2008_TABLESTYLE_CELLSTYLEMAP
360
254
  0
CELLSTYLEMAP
  5
254
102
{ACAD_REACTORS
330
253
102
}
330
253
100
AcDbCellStyleMap
 90
        3
300
CELLSTYLE
  1
TABLEFORMAT_BEGIN
 90
        5
170
     1
 91
        0
 92
    32768
 62
   257
 93
        1
300
CONTENTFORMAT
  1
CONTENTFORMAT_BEGIN
 90
        0
 91
        0
 92
        4
 93
        0
300

 40
0.0
140
1.0
 94
        5
 62
     0
340
11
144
6.0
309
CONTENTFORMAT_END
171
     1
301
MARGIN
  1
CELLMARGIN_BEGIN
 40
1.5
 40
1.5
 40
1.5
 40
1.5
 40
1.5
 40
1.5
309
CELLMARGIN_END
 94
        6
 95
        1
302
GRIDFORMAT
  1
GRIDFORMAT_BEGIN
 90
        0
 91
        1
 62
     0
 92
       -2
340
14
 93
        0
 40
0.045
309
GRIDFORMAT_END
 95
        2
302
GRIDFORMAT
  1
GRIDFORMAT_BEGIN
 90
        0
 91
        1
 62
     0
 92
       -2
340
14
 93
        0
 40
0.045
309
GRIDFORMAT_END
 95
        4
302
GRIDFORMAT
  1
GRIDFORMAT_BEGIN
 90
        0
 91
        1
 62
     0
 92
       -2
340
14
 93
        0
 40
0.045
309
GRIDFORMAT_END
 95
        8
302
GRIDFORMAT
  1
GRIDFORMAT_BEGIN
 90
        0
 91
        1
 62
     0
 92
       -2
340
14
 93
        0
 40
0.045
309
GRIDFORMAT_END
 95
       16
302
GRIDFORMAT
  1
GRIDFORMAT_BEGIN
 90
        0
 91
        1
 62
     0
 92
       -2
340
14
 93
        0
 40
0.045
309
GRIDFORMAT_END
 95
       32
302
GRIDFORMAT
  1
GRIDFORMAT_BEGIN
 90
        0
 91
        1
 62
     0
 92
       -2
340
14
 93
        0
 40
0.045
309
GRIDFORMAT_END
309
TABLEFORMAT_END
  1
CELLSTYLE_BEGIN
 90
        1
 91
        1
300
_TITLE
309
CELLSTYLE_END
300
CELLSTYLE
  1
TABLEFORMAT_BEGIN
 90
        5
170
     1
 91
        0
 92
        0
 62
   257
 93
        1
300
CONTENTFORMAT
  1
CONTENTFORMAT_BEGIN
 90
        0
 91
        0
 92
        4
 93
        0
300

 40
0.0
140
1.0
 94
        5
 62
     0
340
11
144
4.5
309
CONTENTFORMAT_END
171
     1
301
MARGIN
  1
CELLMARGIN_BEGIN
 40
1.5
 40
1.5
 40
1.5
 40
1.5
 40
1.5
 40
1.5
309
CELLMARGIN_END
 94
        6
 95
        1
302
GRIDFORMAT
  1
GRIDFORMAT_BEGIN
 90
        0
 91
        1
 62
     0
 92
       -2
340
14
 93
        0
 40
0.045
309
GRIDFORMAT_END
 95
        2
302
GRIDFORMAT
  1
GRIDFORMAT_BEGIN
 90
        0
 91
        1
 62
     0
 92
       -2
340
14
 93
        0
 40
0.045
309
GRIDFORMAT_END
 95
        4
302
GRIDFORMAT
  1
GRIDFORMAT_BEGIN
 90
        0
 91
        1
 62
     0
 92
       -2
340
14
 93
        0
 40
0.045
309
GRIDFORMAT_END
 95
        8
302
GRIDFORMAT
  1
GRIDFORMAT_BEGIN
 90
        0
 91
        1
 62
     0
 92
       -2
340
14
 93
        0
 40
0.045
309
GRIDFORMAT_END
 95
       16
302
GRIDFORMAT
  1
GRIDFORMAT_BEGIN
 90
        0
 91
        1
 62
     0
 92
       -2
340
14
 93
        0
 40
0.045
309
GRIDFORMAT_END
 95
       32
302
GRIDFORMAT
  1
GRIDFORMAT_BEGIN
 90
        0
 91
        1
 62
     0
 92
       -2
340
14
 93
        0
 40
0.045
309
GRIDFORMAT_END
309
TABLEFORMAT_END
  1
CELLSTYLE_BEGIN
 90
        2
 91
        1
300
_HEADER
309
CELLSTYLE_END
300
CELLSTYLE
  1
TABLEFORMAT_BEGIN
 90
        5
170
     1
 91
        0
 92
        0
 62
   257
 93
        1
300
CONTENTFORMAT
  1
CONTENTFORMAT_BEGIN
 90
        0
 91
        0
 92
        4
 93
        0
300

 40
0.0
140
1.0
 94
        2
 62
     0
340
11
144
4.5
309
CONTENTFORMAT_END
171
     1
301
MARGIN
  1
CELLMARGIN_BEGIN
 40
1.5
 40
1.5
 40
1.5
 40
1.5
 40
1.5
 40
1.5
309
CELLMARGIN_END
 94
        6
 95
        1
302
GRIDFORMAT
  1
GRIDFORMAT_BEGIN
 90
        0
 91
        1
 62
     0
 92
       -2
340
14
 93
        0
 40
0.045
309
GRIDFORMAT_END
 95
        2
302
GRIDFORMAT
  1
GRIDFORMAT_BEGIN
 90
        0
 91
        1
 62
     0
 92
       -2
340
14
 93
        0
 40
0.045
309
GRIDFORMAT_END
 95
        4
302
GRIDFORMAT
  1
GRIDFORMAT_BEGIN
 90
        0
 91
        1
 62
     0
 92
       -2
340
14
 93
        0
 40
0.045
309
GRIDFORMAT_END
 95
        8
302
GRIDFORMAT
  1
GRIDFORMAT_BEGIN
 90
        0
 91
        1
 62
     0
 92
       -2
340
14
 93
        0
 40
0.045
309
GRIDFORMAT_END
 95
       16
302
GRIDFORMAT
  1
GRIDFORMAT_BEGIN
 90
        0
 91
        1
 62
     0
 92
       -2
340
14
 93
        0
 40
0.045
309
GRIDFORMAT_END
 95
       32
302
GRIDFORMAT
  1
GRIDFORMAT_BEGIN
 90
        0
 91
        1
 62
     0
 92
       -2
340
14
 93
        0
 40
0.045
309
GRIDFORMAT_END
309
TABLEFORMAT_END
  1
CELLSTYLE_BEGIN
 90
        3
 91
        2
300
_DATA
309
CELLSTYLE_END
  0
ENDSEC
  0
EOF
